Начать новую тему Ответить на тему
Статистика раздачи
Размер: 379.26 МБ | Добавлен: 26 июн 2020, 20:30 | Скачали: 0
Сидеров: 0  [0 байт/сек]    Личеров: 0  [0 байт/сек]
Пред. тема | След. тема 

Автор
Сообщение

СообщениеДобавлено: 26 июн 2020, 20:30 

Ответить с цитатой 

Cephalgy / Moment Der Stille [EP]
Жанр: Electro, Industrial
Страна-производитель диска: Germany
Год издания диска: 2006
Издатель (лейбл): Out Of Line
Номер по каталогу: OUT 241
Страна: Germany
Аудио кодек: FLAC (*.flac)
Тип рипа: image+.cue
Битрейт аудио: lossless
Продолжительность: 00:39:10
Источник (релизер): Личный диск
Наличие сканов в содержимом раздачи: да
Треклист:
1. Vom Himmel 4:39
2. Engel Sterben Nie (Blutengel Rmx) 5:21
3. Violent Times (Gintronic Rmx) 4:22
4. Niemals 4:09
5. Mein Versprechen (Lost Area Rmx) 4:33
6. Like Hell 5:12
7. Du Bist Das Licht (To Avoid Rmx) 3:33
8. Mein Glaube 3:24
9. Zum Abschied (Staubkind Rmx) 3:56
Код:
Exact Audio Copy V0.99 prebeta 5 from 4. May 2009
Отчёт EAC об извлечении, выполненном 12. марта 2011, 20:44
Cephalgy / Moment der Stille
Дисковод: PIONEER DVD-RW DVRTD10RS   Adapter: 1  ID: 0
Режим чтения                 : Достоверность
Использование точного потока : Да
Отключение кэша аудио        : Да
Использование указателей C2  : Нет
Коррекция смещения при чтении                     : 6
Способность читать области Lead-in и Lead-out     : Нет
Заполнение пропущенных сэмплов тишиной            : Да
Удаление блоков с тишиной в начале и конце        : Нет
При вычислениях CRC использовались нулевые сэмплы : Да
Интерфейс                                         : Встроенный Win32-интерфейс для Win NT/2000
Выходной формат : Внутренние WAV-операции
Формат сэмплов  : 44.100 Гц; 16 бит; стерео
TOC извлечённого CD
     Трек |   Старт  | Длительность | Начальный сектор | Конечный сектор
    ---------------------------------------------------------------------
       1  |  0:00.00 |    4:39.22   |           0      |      20946
       2  |  4:39.22 |    5:21.09   |       20947      |      45030
       3  | 10:00.31 |    4:22.03   |       45031      |      64683
       4  | 14:22.34 |    4:09.09   |       64684      |      83367
       5  | 18:31.43 |    4:33.07   |       83368      |     103849
       6  | 23:04.50 |    5:12.04   |      103850      |     127253
       7  | 28:16.54 |    3:33.06   |      127254      |     143234
       8  | 31:49.60 |    3:24.29   |      143235      |     158563
       9  | 35:14.14 |    3:56.10   |      158564      |     176273
Характеристики диапазона извлечения и сообщения об ошибках
Выбранный диапазон
     Имя файла C:\Раздачи DEHUMANOID\Cephalgy - Moment der Stille\Cephalgy - Moment der Stille.wav
     Пиковый уровень 100.0 %
     Качество диапазона 100 %
     CRC теста 7B6253B7
     CRC копии 7B6253B7
     Копирование... OK
Ошибок не произошло
AccurateRip: сводка
Трек  1  точное извлечение (доверие 3)  [53B09C60]
Трек  2  точное извлечение (доверие 3)  [64512A5A]
Трек  3  точное извлечение (доверие 3)  [3353613B]
Трек  4  точное извлечение (доверие 3)  [A923BA50]
Трек  5  точное извлечение (доверие 3)  [94F5DE8F]
Трек  6  точное извлечение (доверие 3)  [9B6BC758]
Трек  7  точное извлечение (доверие 3)  [877A7EB5]
Трек  8  точное извлечение (доверие 3)  [B92CB660]
Трек  9  точное извлечение (доверие 3)  [37EC6EAE]
Все треки извлечены точно
Конец отчёта
Код:
Started at: суббота, 12. 03. 2011. - 23:51.54
1 file found
1 -===- F:\Раздачи DEHUMANOID\Cephalgy - Moment der Stille\Cephalgy - Moment der Stille.flac
  Extracted successfully
  Conclusion: this track is CDDA with probability 100%
  Tempfile successfully deleted.
Finished at: суббота, 12. 03. 2011. - 23:56.05 (operation time: 0:04.10)
Правила, инструкции, FAQ!!!
Торрент  Добавлен [26 июн 2020, 20:30] Скачать торрент Магнет ссылка
Скачать торрент
[ Размер 15.87 КБ / Просмотров 11 ]

Статус
Проверен 
 
Размер  379.26 МБ
Приватный: Нет (DHT включён)
.torrent скачан  0
 


     Отправить личное сообщение
   
Страница 1 из 1
Показать сообщения за:  Поле сортировки  
Начать новую тему Ответить на тему


Сейчас этот форум просматривают: нет зарегистрированных пользователей и гости: 0


Вы не можете начинать темы
Вы не можете отвечать на сообщения
Вы не можете редактировать свои сообщения
Вы не можете удалять свои сообщения
Вы не можете добавлять вложения

Перейти:  
cron