Начать новую тему Ответить на тему
Статистика раздачи
Размер: 263.54 МБ | Добавлен: 26 июн 2020, 17:20 | Скачали: 0
Сидеров: 0  [0 байт/сек]    Личеров: 0  [0 байт/сек]
Пред. тема | След. тема 

Автор
Сообщение

СообщениеДобавлено: 26 июн 2020, 17:20 

Ответить с цитатой 

Calva Y Nada - Schlaf
Жанр: Electro, Industrial
Год выпуска диска: 1998
Производитель диска: Германия
Аудио кодек: FLAC
Тип рипа: tracks+.cue
Битрейт аудио: lossless
Трэклист:
01 Profanación (2:48)
02 Leben (4:01)
03 Alicia (4:05)
04 Memento Mori (3:44)
05 Schlaf (3:36)
06 Ei Susto Es Nuestro (3:49)
07 Ode An Den Amok (4:11)
08 Kreuzzug (2:11)
09 Keine Angst (3:16)
10 Agonía (5:09)
11 Einsam (4:23)
12 Wallies Traum (2:56)
[pre]
Exact Audio Copy V0.99 prebeta 4 from 23. January 2008
EAC extraction logfile from 18. November 2008, 21:00
Calva Y Nada / Schlaf
Used drive : TSSTcorpDVD+-RW TS-H653B Adapter: 1 ID: 0
Read mode : Secure
Utilize accurate stream : Yes
Defeat audio cache : Yes
Make use of C2 pointers : No
Read offset correction : 6
Overread into Lead-In and Lead-Out : No
Fill up missing offset samples with silence : Yes
Delete leading and trailing silent blocks : No
Null samples used in CRC calculations : Yes
Used interface : Installed external ASPI interface
Gap handling : Appended to previous track
Used output format : User Defined Encoder
Selected bitrate : 192 kBit/s
Quality : High
Add ID3 tag : No
Command line compressor : C:\Program Files\Exact Audio Copy\Flac\flac.exe
Additional command line options : -V -8 -T "artist=%a" -T "title=%t" -T "album=%g" -T "date=%y" -T "tracknumber=%n" -T "genre=%m" %s
TOC of the extracted CD
Track | Start | Length | Start sector | End sector
---------------------------------------------------------
1 | 0:00.00 | 2:47.36 | 0 | 12560
2 | 2:47.36 | 4:00.15 | 12561 | 30575
3 | 6:47.51 | 4:03.04 | 30576 | 48804
4 | 10:50.55 | 3:43.07 | 48805 | 65536
5 | 14:33.62 | 3:37.16 | 65537 | 81827
6 | 18:11.03 | 3:51.03 | 81828 | 99155
7 | 22:02.06 | 4:12.40 | 99156 | 118095
8 | 26:14.46 | 2:08.08 | 118096 | 127703
9 | 28:22.54 | 3:16.62 | 127704 | 142465
10 | 31:39.41 | 5:09.53 | 142466 | 165693
11 | 36:49.19 | 4:23.53 | 165694 | 185471
12 | 41:12.72 | 2:55.21 | 185472 | 198617
Track 1
Filename F:\A\Calva Y Nada - Schlaf [flac]\01 - Profanaciуn.wav
Pre-gap length 0:00:02.00
Peak level 84.4 %
Track quality 100.0 %
Test CRC A5D5A4EA
Copy CRC A5D5A4EA
Track not present in AccurateRip database
Copy OK
Track 2
Filename F:\A\Calva Y Nada - Schlaf [flac]\02 - Leben.wav
Pre-gap length 0:00:01.00
Peak level 100.0 %
Track quality 100.0 %
Test CRC 6254BD55
Copy CRC 6254BD55
Track not present in AccurateRip database
Copy OK
Track 3
Filename F:\A\Calva Y Nada - Schlaf [flac]\03 - Alicia.wav
Pre-gap length 0:00:01.00
Peak level 100.0 %
Track quality 99.9 %
Test CRC 1972C570
Copy CRC 1972C570
Track not present in AccurateRip database
Copy OK
Track 4
Filename F:\A\Calva Y Nada - Schlaf [flac]\04 - Memento Mori.wav
Pre-gap length 0:00:02.00
Peak level 99.9 %
Track quality 100.0 %
Test CRC CD40A580
Copy CRC CD40A580
Track not present in AccurateRip database
Copy OK
Track 5
Filename F:\A\Calva Y Nada - Schlaf [flac]\05 - Schlaf.wav
Pre-gap length 0:00:01.00
Peak level 89.1 %
Track quality 100.0 %
Test CRC FA142A42
Copy CRC FA142A42
Track not present in AccurateRip database
Copy OK
Track 6
Filename F:\A\Calva Y Nada - Schlaf [flac]\06 - El Susto Es Nuestro.wav
Pre-gap length 0:00:02.66
Peak level 100.0 %
Track quality 100.0 %
Test CRC 9A75316D
Copy CRC 9A75316D
Track not present in AccurateRip database
Copy OK
Track 7
Filename F:\A\Calva Y Nada - Schlaf [flac]\07 - Ode an den Amok.wav
Pre-gap length 0:00:03.00
Peak level 100.0 %
Track quality 100.0 %
Test CRC C99E87DD
Copy CRC C99E87DD
Track not present in AccurateRip database
Copy OK
Track 8
Filename F:\A\Calva Y Nada - Schlaf [flac]\08 - Kreuzzug.wav
Pre-gap length 0:00:02.00
Peak level 96.8 %
Track quality 100.0 %
Test CRC 6C4BE94F
Copy CRC 6C4BE94F
Track not present in AccurateRip database
Copy OK
Track 9
Filename F:\A\Calva Y Nada - Schlaf [flac]\09 - Keine Angst.wav
Pre-gap length 0:00:02.53
Peak level 100.0 %
Track quality 100.0 %
Test CRC 7C1D5D2B
Copy CRC 7C1D5D2B
Track not present in AccurateRip database
Copy OK
Track 10
Filename F:\A\Calva Y Nada - Schlaf [flac]\10 - Agonнa.wav
Pre-gap length 0:00:02.80
Peak level 79.4 %
Track quality 100.0 %
Test CRC 9E2B56F6
Copy CRC 9E2B56F6
Track not present in AccurateRip database
Copy OK
Track 11
Filename F:\A\Calva Y Nada - Schlaf [flac]\11 - Einsam.wav
Pre-gap length 0:00:02.00
Peak level 100.0 %
Track quality 100.0 %
Test CRC A628E911
Copy CRC A628E911
Track not present in AccurateRip database
Copy OK
Track 12
Filename F:\A\Calva Y Nada - Schlaf [flac]\12 - Wallies Traum.wav
Pre-gap length 0:00:02.00
Peak level 100.0 %
Track quality 100.0 %
Test CRC 3C226135
Copy CRC 3C226135
Track not present in AccurateRip database
Copy OK
None of the tracks are present in the AccurateRip database
No errors occurred
End of status report[pre]

Доп. информация: Проект Calva Y Nada, созданный силами немецкого музыканта по имени Бреналь в самом начале 90-х годов прошлого века придется по душе всем любителям жеской электроники с грубым мужским вокалом. Примечателен тот факт, что хоть Бреналь и начал свой проект в те же года что и небезызвестные Das Ich и Goethes Erben, но избежал, каким-то чудом даже хоть какого-то намека на классический саунд раннего немецкого дарквейва, здесь нет ни истеричности, ни театральности, нет и печального романтизма... каждый трек это мощный боевой гимн, пропитанный злой издевкой, стебом. Музыка Calva Y Nada воинственна и кровожадна, она не похожа ни на один из известных мне музыкальных актов. Помимо немецкоязычного вокала, Calva Y Nada не чурается порычать и на португальском.
Правила, инструкции, FAQ!!!
Торрент  Добавлен [26 июн 2020, 17:20] Скачать торрент Магнет ссылка
Скачать торрент
[ Размер 11.48 КБ / Просмотров 12 ]

Статус
Проверен 
 
Размер  263.54 МБ
Приватный: Нет (DHT включён)
.torrent скачан  0
 


     Отправить личное сообщение
   
Страница 1 из 1
Показать сообщения за:  Поле сортировки  
Начать новую тему Ответить на тему


Сейчас этот форум просматривают: нет зарегистрированных пользователей и гости: 0


Вы не можете начинать темы
Вы не можете отвечать на сообщения
Вы не можете редактировать свои сообщения
Вы не можете удалять свои сообщения
Вы не можете добавлять вложения

Перейти:  
cron