Начать новую тему Ответить на тему
Статистика раздачи
Размер: 291.3 МБ | Добавлен: 26 июн 2020, 17:09 | Скачали: 0
Сидеров: 0  [0 байт/сек]    Личеров: 0  [0 байт/сек]
Пред. тема | След. тема 

Автор
Сообщение

СообщениеДобавлено: 26 июн 2020, 17:09 

Ответить с цитатой 

Calva Y Nada - Días Felizes
Жанр: Electro, Industrial
Год выпуска диска: 1991
Производитель диска: Germany
Аудио кодек: FLAC
Тип рипа: image+.cue
Битрейт аудио: lossless
Продолжительность: 46:32
Трэклист:
01 Die Reise (3:22)
02 Sturz (2:06)
03 Sigueme (4:16)
04 Yak (2:59)
05 Rascheln (4:25)
06 El Combate (1:58)
07 Dias Felizes (4:24)
08 La Visita (2:29)
09 Sin Tardanza (6:39)
10 Inferno (0:38)
11 Es Ist Vorbei (3:27)
12 Abgesang (3:16)
13 Paradies!? (3:21)
14 Dralles Weib (3:20)
Доп. информация:
Label: Hyperium Records
Catalog#: 39100052
Credits: Guitar, Backing Vocals - Constantin Warter
Vocals, Drums, Sampler, Featuring [Clapping & Whistling] - Breñal
Код:
Exact Audio Copy V0.99 prebeta 4 from 23. January 2008
Отчёт EAC об извлечении, выполненном 21. января 2009, 21:59
Calva Y Nada / Dias Felizes
Дисковод: PLEXTOR DVD-ROM PX-116A2   Adapter: 3  ID: 1
Режим чтения                 : Достоверность
Использование точного потока : Да
Отключение кэша аудио        : Да
Использование указателей C2  : Нет
Коррекция смещения при чтении                     : 102
Способность читать области Lead-in и Lead-out     : Нет
Заполнение пропущенных сэмплов тишиной            : Да
Удаление блоков с тишиной в начале и конце        : Нет
При вычислениях CRC использовались нулевые сэмплы : Да
Интерфейс                                         : Установленный внешний ASPI-интерфейс
Выходной формат          : Пользовательский кодировщик
Выбранный битрейт        : 1024 kBit/s
Качество                 : Высокий
Добавление ID3-тэга      : Нет
Утилита сжатия           : C:\Program Files\FLAC\flac.exe
Дополнительные параметры : -6 -V -T "ARTIST=%a" -T "TITLE=%t" -T "ALBUM=%g" -T "DATE=%y" -T "TRACKNUMBER=%n" -T "GENRE=%m" -T "COMMENT=%e" %s -o %d
TOC извлечённого CD
     Трек |   Старт  | Длительность | Начальный сектор | Конечный сектор
    ---------------------------------------------------------------------
       1  |  0:00.00 |    3:22.11   |           0      |      15160
       2  |  3:22.11 |    2:07.57   |       15161      |      24742
       3  |  5:29.68 |    4:16.73   |       24743      |      44015
       4  |  9:46.66 |    2:56.49   |       44016      |      57264
       5  | 12:43.40 |    4:24.73   |       57265      |      77137
       6  | 17:08.38 |    1:58.74   |       77138      |      86061
       7  | 19:07.37 |    4:20.41   |       86062      |     105602
       8  | 23:28.03 |    2:29.04   |      105603      |     116781
       9  | 25:57.07 |    6:39.00   |      116782      |     146706
      10  | 32:36.07 |    0:37.30   |      146707      |     149511
      11  | 33:13.37 |    3:27.00   |      149512      |     165036
      12  | 36:40.37 |    3:15.63   |      165037      |     179724
      13  | 39:56.25 |    3:20.03   |      179725      |     194727
      14  | 43:16.28 |    3:15.45   |      194728      |     209397
Характеристики диапазона извлечения и сообщения об ошибках
Выбранный диапазон
     Имя файла D:\torrent1\Calva Y Nada - Dias Felizes\Calva Y Nada - Dias Felizes.wav
     Пиковый уровень 100.0 %
     Качество диапазона 99.9 %
     CRC теста C4FAAA06
     CRC копии C4FAAA06
     Копирование... OK
Ошибок не произошло
AccurateRip: сводка
Трек  1  нет в базе данных
Трек  2  нет в базе данных
Трек  3  нет в базе данных
Трек  4  нет в базе данных
Трек  5  нет в базе данных
Трек  6  нет в базе данных
Трек  7  нет в базе данных
Трек  8  нет в базе данных
Трек  9  нет в базе данных
Трек 10  нет в базе данных
Трек 11  нет в базе данных
Трек 12  нет в базе данных
Трек 13  нет в базе данных
Трек 14  нет в базе данных
Ни одного трека нет в базе AccurateRip
Конец отчёта
Правила, инструкции, FAQ!!!
Торрент  Добавлен [26 июн 2020, 17:09] Скачать торрент Магнет ссылка
Скачать торрент
[ Размер 12.03 КБ / Просмотров 5 ]

Статус
Проверен 
 
Размер  291.3 МБ
Приватный: Нет (DHT включён)
.torrent скачан  0
 


     Отправить личное сообщение
   
Страница 1 из 1
Показать сообщения за:  Поле сортировки  
Начать новую тему Ответить на тему


Сейчас этот форум просматривают: нет зарегистрированных пользователей и гости: 0


Вы не можете начинать темы
Вы не можете отвечать на сообщения
Вы не можете редактировать свои сообщения
Вы не можете удалять свои сообщения
Вы не можете добавлять вложения

Перейти:  
cron