Начать новую тему Ответить на тему
Статистика раздачи
Размер: 338.02 МБ | Добавлен: 26 июн 2020, 17:11 | Скачали: 0
Сидеров: 0  [0 байт/сек]    Личеров: 0  [0 байт/сек]
Пред. тема | След. тема 

Автор
Сообщение

СообщениеДобавлено: 26 июн 2020, 17:11 

Ответить с цитатой 

And Christ Wept / Destroy Existence
Жанр: Electro-Industrial
Страна-производитель диска: Germany
Год издания диска: 1995
Издатель (лейбл): VUZ Records
Номер по каталогу: VUZ 08
Аудио кодек: FLAC (*.flac)
Тип рипа: tracks+.cue
Битрейт аудио: lossless
Продолжительность: 51:58
Источник (релизер): из личной коллекции
Наличие сканов в содержимом раздачи: да
Треклист:
1. What sorrow becomes (2:13)
2. The maschines rolls on (5:06)
3. Killing Addiction (4:55)
4. Dead world (5:53)
5. Sinking (3:46)
6. Fascist statement (4:13)
7. Scorched earth policy (5:23)
8. Downtrodden (3:58)
9. Chokehold (5:31)
10. A grief stricken reflection (3:12)
11. Halcyon (3:46)
12. Anti (coat hanger mix) (4:02)
Код:
Exact Audio Copy V1.0 beta 1 from 15. November 2010
EAC extraction logfile from 10. January 2011, 15:24
And Christ Wept / Destroy Exitence
Used drive  : Optiarc BD ROM BC-5500A   Adapter: 0  ID: 0
Read mode               : Secure
Utilize accurate stream : Yes
Defeat audio cache      : Yes
Make use of C2 pointers : No
Read offset correction                      : 48
Overread into Lead-In and Lead-Out          : No
Fill up missing offset samples with silence : Yes
Delete leading and trailing silent blocks   : No
Null samples used in CRC calculations       : Yes
Used interface                              : Native Win32 interface for Win NT & 2000
Gap handling                                : Appended to previous track
Used output format              : User Defined Encoder
Selected bitrate                : 128 kBit/s
Quality                         : High
Add ID3 tag                     : No
Command line compressor         : C:\Program Files\Exact Audio Copy\Flac\flac.exe
Additional command line options : -8 -V -T "ARTIST=%a" -T "TITLE=%t" -T "ALBUM=%g" -T "DATE=%y" -T "TRACKNUMBER=%n" -T "GENRE=%m" -T "COMMENT=EAC FLAC -8" %s
TOC of the extracted CD
     Track |   Start  |  Length  | Start sector | End sector
    ---------------------------------------------------------
        1  |  0:00.30 |  2:13.29 |        30    |    10033
        2  |  2:13.59 |  5:06.69 |     10034    |    33052
        3  |  7:20.53 |  4:55.23 |     33053    |    55200
        4  | 12:16.01 |  5:53.63 |     55201    |    81738
        5  | 18:09.64 |  3:46.48 |     81739    |    98736
        6  | 21:56.37 |  4:13.53 |     98737    |   117764
        7  | 26:10.15 |  5:23.44 |    117765    |   142033
        8  | 31:33.59 |  3:58.60 |    142034    |   159943
        9  | 35:32.44 |  5:31.05 |    159944    |   184773
       10  | 41:03.49 |  3:12.62 |    184774    |   199235
       11  | 44:16.36 |  3:46.10 |    199236    |   216195
       12  | 48:02.46 |  4:02.21 |    216196    |   234366
Track  1
     Filename D:\And Christ Wept - 1995 - Destroy Exitence\01 - What sorrow becomes .wav
     Pre-gap length  0:00:02.30
     Peak level 39.2 %
     Extraction speed 1.9 X
     Track quality 100.0 %
     Test CRC 09184484
     Copy CRC 09184484
     Accurately ripped (confidence 3)  [36C9F96D]
     Copy OK
Track  2
     Filename D:\And Christ Wept - 1995 - Destroy Exitence\02 - The maschines rolls on .wav
     Peak level 99.6 %
     Extraction speed 2.5 X
     Track quality 100.0 %
     Test CRC C1B78D17
     Copy CRC C1B78D17
     Accurately ripped (confidence 3)  [7EFCB0A3]
     Copy OK
Track  3
     Filename D:\And Christ Wept - 1995 - Destroy Exitence\03 - Killing Addiction .wav
     Peak level 99.6 %
     Extraction speed 2.8 X
     Track quality 100.0 %
     Test CRC D6649D15
     Copy CRC D6649D15
     Accurately ripped (confidence 3)  [6120100D]
     Copy OK
Track  4
     Filename D:\And Christ Wept - 1995 - Destroy Exitence\04 - Dead world .wav
     Peak level 99.6 %
     Extraction speed 3.1 X
     Track quality 100.0 %
     Test CRC 80F96884
     Copy CRC 80F96884
     Accurately ripped (confidence 3)  [42051442]
     Copy OK
Track  5
     Filename D:\And Christ Wept - 1995 - Destroy Exitence\05 - Sinking .wav
     Peak level 99.3 %
     Extraction speed 3.2 X
     Track quality 100.0 %
     Test CRC 57D15C0C
     Copy CRC 57D15C0C
     Accurately ripped (confidence 3)  [363F1AC7]
     Copy OK
Track  6
     Filename D:\And Christ Wept - 1995 - Destroy Exitence\06 - Fascist statement .wav
     Peak level 98.9 %
     Extraction speed 2.8 X
     Track quality 99.9 %
     Test CRC B6303CFB
     Copy CRC B6303CFB
     Accurately ripped (confidence 3)  [E84871DF]
     Copy OK
Track  7
     Filename D:\And Christ Wept - 1995 - Destroy Exitence\07 - Scorched earth policy .wav
     Peak level 75.4 %
     Extraction speed 3.7 X
     Track quality 100.0 %
     Test CRC 3223A78D
     Copy CRC 3223A78D
     Accurately ripped (confidence 3)  [3ED9F6FC]
     Copy OK
Track  8
     Filename D:\And Christ Wept - 1995 - Destroy Exitence\08 - Downtrodden .wav
     Peak level 91.3 %
     Extraction speed 3.7 X
     Track quality 100.0 %
     Test CRC 3D997928
     Copy CRC 3D997928
     Accurately ripped (confidence 3)  [EA70685A]
     Copy OK
Track  9
     Filename D:\And Christ Wept - 1995 - Destroy Exitence\09 - Chokehold .wav
     Peak level 65.3 %
     Extraction speed 3.4 X
     Track quality 99.9 %
     Test CRC 9CA66E6C
     Copy CRC 9CA66E6C
     Accurately ripped (confidence 3)  [4CA98836]
     Copy OK
Track 10
     Filename D:\And Christ Wept - 1995 - Destroy Exitence\10 - A grief stricken reflection .wav
     Peak level 67.1 %
     Extraction speed 3.9 X
     Track quality 100.0 %
     Test CRC 935877CC
     Copy CRC 935877CC
     Accurately ripped (confidence 3)  [DA57EE7C]
     Copy OK
Track 11
     Filename D:\And Christ Wept - 1995 - Destroy Exitence\11 - Halcyon .wav
     Peak level 77.9 %
     Extraction speed 3.3 X
     Track quality 99.9 %
     Test CRC 098AF769
     Copy CRC 098AF769
     Accurately ripped (confidence 3)  [6ECAF9EB]
     Copy OK
Track 12
     Filename D:\And Christ Wept - 1995 - Destroy Exitence\12 - Anti (coat hanger mix) .wav
     Peak level 77.9 %
     Extraction speed 4.3 X
     Track quality 100.0 %
     Test CRC 17C9DD0D
     Copy CRC 17C9DD0D
     Accurately ripped (confidence 3)  [4C681A22]
     Copy OK
All tracks accurately ripped
No errors occurred
End of status report
==== Log checksum 6F7BBE44FBDDD462A8D79EE3925CFC28422BF3D717F90F4F7FAD6E19B07CE624 ====
Код:
REM GENRE Industrial
REM DATE 1995
REM DISCID AB0C340C
REM COMMENT "ExactAudioCopy v1.0b1"
PERFORMER "And Christ Wept"
TITLE "Destroy Exitence"
FILE "01 - What sorrow becomes.flac" WAVE
  TRACK 01 AUDIO
    TITLE "What sorrow becomes"
    PERFORMER "And Christ Wept"
    PREGAP 00:00:30
    INDEX 01 00:00:00
FILE "02 - The maschines rolls on.flac" WAVE
  TRACK 02 AUDIO
    TITLE "The maschines rolls on"
    PERFORMER "And Christ Wept"
    INDEX 01 00:00:00
FILE "03 - Killing Addiction.flac" WAVE
  TRACK 03 AUDIO
    TITLE "Killing Addiction"
    PERFORMER "And Christ Wept"
    INDEX 01 00:00:00
FILE "04 - Dead world.flac" WAVE
  TRACK 04 AUDIO
    TITLE "Dead world"
    PERFORMER "And Christ Wept"
    INDEX 01 00:00:00
FILE "05 - Sinking.flac" WAVE
  TRACK 05 AUDIO
    TITLE "Sinking"
    PERFORMER "And Christ Wept"
    INDEX 01 00:00:00
FILE "06 - Fascist statement.flac" WAVE
  TRACK 06 AUDIO
    TITLE "Fascist statement"
    PERFORMER "And Christ Wept"
    INDEX 01 00:00:00
FILE "07 - Scorched earth policy.flac" WAVE
  TRACK 07 AUDIO
    TITLE "Scorched earth policy"
    PERFORMER "And Christ Wept"
    INDEX 01 00:00:00
FILE "08 - Downtrodden.flac" WAVE
  TRACK 08 AUDIO
    TITLE "Downtrodden"
    PERFORMER "And Christ Wept"
    INDEX 01 00:00:00
FILE "09 - Chokehold.flac" WAVE
  TRACK 09 AUDIO
    TITLE "Chokehold"
    PERFORMER "And Christ Wept"
    INDEX 01 00:00:00
FILE "10 - A grief stricken reflection.flac" WAVE
  TRACK 10 AUDIO
    TITLE "A grief stricken reflection"
    PERFORMER "And Christ Wept"
    INDEX 01 00:00:00
FILE "11 - Halcyon.flac" WAVE
  TRACK 11 AUDIO
    TITLE "Halcyon"
    PERFORMER "And Christ Wept"
    INDEX 01 00:00:00
FILE "12 - Anti (coat hanger mix).flac" WAVE
  TRACK 12 AUDIO
    TITLE "Anti (coat hanger mix)"
    PERFORMER "And Christ Wept"
    INDEX 01 00:00:00
Правила, инструкции, FAQ!!!
Торрент  Добавлен [26 июн 2020, 17:11] Скачать торрент Магнет ссылка
Скачать торрент
[ Размер 14.72 КБ / Просмотров 3 ]

Статус
Проверен 
 
Размер  338.02 МБ
Приватный: Нет (DHT включён)
.torrent скачан  0
 


     Отправить личное сообщение
   
Страница 1 из 1
Показать сообщения за:  Поле сортировки  
Начать новую тему Ответить на тему


Сейчас этот форум просматривают: нет зарегистрированных пользователей и гости: 0


Вы не можете начинать темы
Вы не можете отвечать на сообщения
Вы не можете редактировать свои сообщения
Вы не можете удалять свои сообщения
Вы не можете добавлять вложения

Перейти:  
cron