Начать новую тему Ответить на тему
Статистика раздачи
Размер: 366.32 МБ | Добавлен: 26 июн 2020, 16:50 | Скачали: 0
Сидеров: 0  [0 байт/сек]    Личеров: 0  [0 байт/сек]
Пред. тема | След. тема 

Автор
Сообщение

СообщениеДобавлено: 26 июн 2020, 16:50 

Ответить с цитатой 

Analogue Brain - Electroshock
Жанр: Electro, Industrial
Год выпуска диска: 2005
Производитель диска: Германия
Аудио кодек: APE
Тип рипа: image+.cue
Битрейт аудио: lossless
Продолжительность: 00:50:24
Трэклист:
01.Heart Of Steel
02.Fly In An Amber
03.Captured (In A Dream)
04.Short-term Memory
05.There Must Be More
06.Alter Ego
07.Electroshock
08.She Said
09.Cold As Stone
10.Versatile Violence
11.Dead Keen On (Cut One) V2
Код:
Exact Audio Copy V0.99 prebeta 5 from 4. May 2009
Отчёт EAC об извлечении, выполненном 24. июля 2009, 22:28
Analogue Brain / Electroshock
Дисковод: Optiarc DVD RW AD-7201S   Adapter: 1  ID: 1
Режим чтения                 : Достоверность
Использование точного потока : Да
Отключение кэша аудио        : Да
Использование указателей C2  : Нет
Коррекция смещения при чтении                     : 48
Способность читать области Lead-in и Lead-out     : Нет
Заполнение пропущенных сэмплов тишиной            : Да
Удаление блоков с тишиной в начале и конце        : Нет
При вычислениях CRC использовались нулевые сэмплы : Да
Интерфейс                                         : Установленный внешний ASPI-интерфейс
Выходной формат : Внутренние WAV-операции
Формат сэмплов  : 44.100 Гц; 16 бит; стерео
TOC извлечённого CD
     Трек |   Старт  | Длительность | Начальный сектор | Конечный сектор
    ---------------------------------------------------------------------
       1  |  0:00.00 |    3:53.23   |           0      |      17497
       2  |  3:53.23 |    5:06.53   |       17498      |      40500
       3  |  9:00.01 |    5:22.52   |       40501      |      64702
       4  | 14:22.53 |    2:10.33   |       64703      |      74485
       5  | 16:33.11 |    5:09.47   |       74486      |      97707
       6  | 21:42.58 |    4:44.35   |       97708      |     119042
       7  | 26:27.18 |    4:54.06   |      119043      |     141098
       8  | 31:21.24 |    4:45.35   |      141099      |     162508
       9  | 36:06.59 |    4:22.19   |      162509      |     182177
      10  | 40:29.03 |    5:06.72   |      182178      |     205199
      11  | 45:36.00 |    4:48.01   |      205200      |     226800
Характеристики диапазона извлечения и сообщения об ошибках
Выбранный диапазон
     Имя файла D:\Documents and Settings\Rodexx\Рабочий стол\Analogue  Brain - Electroshock\Analogue Brain - Electroshock.wav
     Пиковый уровень 100.0 %
     Качество диапазона 100.0 %
     CRC копии D245D718
     Копирование... OK
Ошибок не произошло
Конец отчёта
 
Label: Out Of Line
Catalog#: OUT 196
Format: CD
Правила, инструкции, FAQ!!!
Торрент  Добавлен [26 июн 2020, 16:50] Скачать торрент Магнет ссылка
Скачать торрент
[ Размер 15.05 КБ / Просмотров 5 ]

Статус
Проверен 
 
Размер  366.32 МБ
Приватный: Нет (DHT включён)
.torrent скачан  0
 


     Отправить личное сообщение
   
Страница 1 из 1
Показать сообщения за:  Поле сортировки  
Начать новую тему Ответить на тему


Сейчас этот форум просматривают: нет зарегистрированных пользователей и гости: 0


Вы не можете начинать темы
Вы не можете отвечать на сообщения
Вы не можете редактировать свои сообщения
Вы не можете удалять свои сообщения
Вы не можете добавлять вложения

Перейти:  
cron