Начать новую тему Ответить на тему
Статистика раздачи
Размер: 417.85 МБ | Добавлен: 26 июн 2020, 17:33 | Скачали: 0
Сидеров: 0  [0 байт/сек]    Личеров: 0  [0 байт/сек]
Пред. тема | След. тема 

Автор
Сообщение

СообщениеДобавлено: 26 июн 2020, 17:33 

Ответить с цитатой 

Zentriert ins Antlitz - Diametral
Жанр: Electro, Industrial, Ambient
Год выпуска диска: 2007
Производитель диска: Germany
Аудио кодек: FLAC
Тип рипа: image+.cue
Битрейт аудио: lossless
Продолжительность: 64:28
Трэклист:
01. Der Zorn Des Lammes (4:39)
02. Sleeper (4:37)
03. Hotspot Tracing (5:11)
04. Dynamic Planet (4:52)
05. Unvollständigkeit (4:32)
06. Fallen (2:52)
07. Jahr Für Jahr (6:54)
08. Beyond The Reef (8:45)
09. Diametral (4:46)
10. Kollision (5:14)
11. Jericho (2:34)
12. Reprise (9:26)
Код:
Exact Audio Copy V0.99 prebeta 4 from 23. January 2008
Отчёт EAC об извлечении, выполненном 27. января 2009, 9:32
Zentriert Ins Antlitz / Diametral
Дисковод: PIONEER DVD-RW  DVR-109   Adapter: 1  ID: 2
Режим чтения                 : Достоверность
Использование точного потока : Да
Отключение кэша аудио        : Да
Использование указателей C2  : Нет
Коррекция смещения при чтении                     : 48
Способность читать области Lead-in и Lead-out     : Нет
Заполнение пропущенных сэмплов тишиной            : Да
Удаление блоков с тишиной в начале и конце        : Нет
При вычислениях CRC использовались нулевые сэмплы : Да
Интерфейс                                         : Встроенный Win32-интерфейс для Win NT/2000
Выходной формат          : Пользовательский кодировщик
Выбранный битрейт        : 1024 kBit/s
Качество                 : Высокий
Добавление ID3-тэга      : Нет
Утилита сжатия           : C:\Program Files\Exact Audio Copy\Flac\flac.exe
Дополнительные параметры : -8 -V -T "ARTIST=%a" -T "TITLE=%t" -T "ALBUM=%g" -T "DATE=%y" -T "TRACKNUMBER=%n" -T "GENRE=%m" -T "COMMENT=EAC FLAC -8" %s
TOC извлечённого CD
     Трек |   Старт  | Длительность | Начальный сектор | Конечный сектор
    ---------------------------------------------------------------------
       1  |  0:00.00 |    4:39.67   |           0      |      20991
       2  |  4:39.67 |    4:37.58   |       20992      |      41824
       3  |  9:17.50 |    5:11.62   |       41825      |      65211
       4  | 14:29.37 |    4:52.34   |       65212      |      87145
       5  | 19:21.71 |    4:32.46   |       87146      |     107591
       6  | 23:54.42 |    2:52.16   |      107592      |     120507
       7  | 26:46.58 |    6:54.14   |      120508      |     151571
       8  | 33:40.72 |    8:45.17   |      151572      |     190963
       9  | 42:26.14 |    4:46.23   |      190964      |     212436
      10  | 47:12.37 |    5:14.19   |      212437      |     236005
      11  | 52:26.56 |    2:34.59   |      236006      |     247614
      12  | 55:01.40 |    9:26.45   |      247615      |     290109
Характеристики диапазона извлечения и сообщения об ошибках
Выбранный диапазон
     Имя файла D:\EAC\Zentriert Ins Antlitz - Diametral.wav
     Пиковый уровень 100.0 %
     Качество диапазона 100.0 %
     CRC копии CCDE3698
     Копирование... OK
Ошибок не произошло
Конец отчёта
AUDIOCHECKER v1.2 - by Dester - opdester@freemail.hu
~~~~~~~~~~~~~~~~~
1 -===- D:\EAC\Zentriert Ins Antlitz - Diametral.flac
Extracted successfully
Conclusion: This track looks like CDDA with probability 100%
Альбом был скачан в виде WAV-файлов с оф. сайта и записан на диск.
Правила, инструкции, FAQ!!!
Торрент  Добавлен [26 июн 2020, 17:33] Скачать торрент Магнет ссылка
Скачать торрент
[ Размер 17.01 КБ / Просмотров 7 ]

Статус
Проверен 
 
Размер  417.85 МБ
Приватный: Нет (DHT включён)
.torrent скачан  0
 


     Отправить личное сообщение
   
Страница 1 из 1
Показать сообщения за:  Поле сортировки  
Начать новую тему Ответить на тему


Сейчас этот форум просматривают: нет зарегистрированных пользователей и гости: 0


Вы не можете начинать темы
Вы не можете отвечать на сообщения
Вы не можете редактировать свои сообщения
Вы не можете удалять свои сообщения
Вы не можете добавлять вложения

Перейти:  
cron