Начать новую тему Ответить на тему
Статистика раздачи
Размер: 393.48 МБ | Добавлен: 26 июн 2020, 19:07 | Скачали: 0
Сидеров: 0  [0 байт/сек]    Личеров: 0  [0 байт/сек]
Пред. тема | След. тема 

Автор
Сообщение

СообщениеДобавлено: 26 июн 2020, 19:07 

Ответить с цитатой 

Acretongue / Strange Cargo
Жанр: electro industrial
Страна-производитель диска: Germany
Год издания диска: 2011
Издатель (лейбл): Mindbase
Номер по каталогу: mind 189
Аудиокодек: FLAC (*.flac)
Тип рипа: image+.cue
Битрейт аудио: lossless
Продолжительность: 56:24.69
Источник (релизер): Физический носитель
Наличие сканов в содержимом раздачи: да
Треклист:
01. Origin [5:49]
02. Flowers In The Attic [6:12]
03. Unspoken [5:51]
04. These Soft Machines [5:37]
05. Orphan's Affinity [5:31]
06. Amber [5:28]
07. Dragonfly (Version) [5:29]
08. Riven [6:02]
09. Strange Cargo [5:36]
10. Oblvion [4:50]
Код:
Exact Audio Copy V1.0 beta 1 from 15. November 2010
Отчёт EAC об извлечении, выполненном 28. ноября 2011, 9:22
Acretongue / Strange Cargo
Дисковод: _NEC    DVD_RW ND-3520A   Adapter: 0  ID: 1
Режим чтения                 : Достоверность
Использование точного потока : Да
Отключение кэша аудио        : Да
Использование указателей C2  : Нет
Коррекция смещения при чтении                     : 48
Способность читать области Lead-in и Lead-out     : Нет
Заполнение пропущенных сэмплов тишиной            : Да
Удаление блоков с тишиной в начале и конце        : Нет
При вычислениях CRC использовались нулевые сэмплы : Да
Интерфейс                                         : Установленный внешний ASPI-интерфейс
Выходной формат          : Пользовательский кодировщик
Выбранный битрейт        : 1024 kBit/s
Качество                 : Высокий
Добавление ID3-тэга      : Нет
Утилита сжатия           : D:\Program Files\Exact Audio Copy\FLAC\FLAC.EXE
Дополнительные параметры : -6 -V -T "ARTIST=%a" -T "TITLE=%t" -T "ALBUM=%g" -T "DATE=%y" -T "TRACKNUMBER=%n" -T "GENRE=%m" -T "COMMENT=%e" %j--picture="%i"%j %s -o %d
TOC извлечённого CD
     Трек |   Старт  | Длительность | Начальный сектор | Конечный сектор
    ---------------------------------------------------------------------
       1  |  0:00.00 |    5:48.71   |           0      |      26170
       2  |  5:48.71 |    6:11.70   |       26171      |      54065
       3  | 12:00.66 |    5:51.03   |       54066      |      80393
       4  | 17:51.69 |    5:37.37   |       80394      |     105705
       5  | 23:29.31 |    5:30.47   |      105706      |     130502
       6  | 29:00.03 |    5:27.58   |      130503      |     155085
       7  | 34:27.61 |    5:29.34   |      155086      |     179794
       8  | 39:57.20 |    6:01.74   |      179795      |     206943
       9  | 45:59.19 |    5:36.02   |      206944      |     232145
      10  | 51:35.21 |    4:49.48   |      232146      |     253868
Характеристики диапазона извлечения и сообщения об ошибках
Выбранный диапазон
     Имя файла O:\На трекер\Acretongue - Strange Cargo.wav
     Пиковый уровень 98.4 %
0.4 X
     Качество диапазона 100.0 %
     CRC теста FB786D44
     CRC копии FB786D44
     Копирование... OK
Ошибок не произошло
AccurateRip: сводка
Трек  1  нет в базе данных
Трек  2  нет в базе данных
Трек  3  нет в базе данных
Трек  4  нет в базе данных
Трек  5  нет в базе данных
Трек  6  нет в базе данных
Трек  7  нет в базе данных
Трек  8  нет в базе данных
Трек  9  нет в базе данных
Трек 10  нет в базе данных
Ни одного трека нет в базе AccurateRip
Конец отчёта
====  F9D7ECFCC09102CE91A9F0DDFCB844D096E9BC3B194E0ED4F0D8A4066E9186AC ====
Правила, инструкции, FAQ!!!
Торрент  Добавлен [26 июн 2020, 19:07] Скачать торрент Магнет ссылка
Скачать торрент
[ Размер 16.4 КБ / Просмотров 6 ]

Статус
Проверен 
 
Размер  393.48 МБ
Приватный: Нет (DHT включён)
.torrent скачан  0
 


     Отправить личное сообщение
   
Страница 1 из 1
Показать сообщения за:  Поле сортировки  
Начать новую тему Ответить на тему


Сейчас этот форум просматривают: нет зарегистрированных пользователей и гости: 0


Вы не можете начинать темы
Вы не можете отвечать на сообщения
Вы не можете редактировать свои сообщения
Вы не можете удалять свои сообщения
Вы не можете добавлять вложения

Перейти:  
cron