Начать новую тему Ответить на тему
Статистика раздачи
Размер: 497.04 МБ | Добавлен: 26 июн 2020, 16:58 | Скачали: 0
Сидеров: 0  [0 байт/сек]    Личеров: 0  [0 байт/сек]
Пред. тема | След. тема 

Автор
Сообщение

СообщениеДобавлено: 26 июн 2020, 16:58 

Ответить с цитатой 

High Wycombe - Retoure
Жанр: Electro
Год выпуска диска: 2004
Производитель диска: Germany
Аудио кодек: APE
Тип рипа: image+.cue
Битрейт аудио: lossless
Продолжительность: 01:18:28
Трэклист:
01. Retoure 2:48
02. Geometrical 6:13
03. Stalker 9:37
04. Eugenic 4:38
05. Oblivious 7:31
06. Their Law 6:24
07. Journey Of Self-Awakening 4:01
08. Contact (Direct Mix) 5:37
09. Code 74 (Neo Mix) 4:28
10. Captive (1998) 5:47
11. Fight (Re-Animate) 5:59
12. Neila 5:06
13. Oblivious (Charivari Mix By Patt) 5:14
14. Runner's High (Low Mix By X_Dynamics) 4:58
Код:
Exact Audio Copy V0.99 prebeta 5 from 4. May 2009
Отчёт EAC об извлечении, выполненном 19. октября 2009, 18:01
High Wycombe / retoure
Дисковод: Optiarc DVD RW AD-7201S   Adapter: 2  ID: 1
Режим чтения                 : Достоверность
Использование точного потока : Да
Отключение кэша аудио        : Да
Использование указателей C2  : Нет
Коррекция смещения при чтении                     : 48
Способность читать области Lead-in и Lead-out     : Нет
Заполнение пропущенных сэмплов тишиной            : Да
Удаление блоков с тишиной в начале и конце        : Нет
При вычислениях CRC использовались нулевые сэмплы : Да
Интерфейс                                         : Встроенный Win32-интерфейс для Win NT/2000
Выходной формат : Внутренние WAV-операции
Формат сэмплов  : 44.100 Гц; 16 бит; стерео
TOC извлечённого CD
     Трек |   Старт  | Длительность | Начальный сектор | Конечный сектор
    ---------------------------------------------------------------------
       1  |  0:00.00 |    2:48.38   |           0      |      12637
       2  |  2:48.38 |    6:13.69   |       12638      |      40681
       3  |  9:02.32 |    9:37.63   |       40682      |      84019
       4  | 18:40.20 |    4:38.67   |       84020      |     104936
       5  | 23:19.12 |    7:31.08   |      104937      |     138769
       6  | 30:50.20 |    6:24.54   |      138770      |     167623
       7  | 37:14.74 |    4:01.03   |      167624      |     185701
       8  | 41:16.02 |    5:37.07   |      185702      |     210983
       9  | 46:53.09 |    4:28.04   |      210984      |     231087
      10  | 51:21.13 |    5:47.53   |      231088      |     257165
      11  | 57:08.66 |    5:59.71   |      257166      |     284161
      12  | 63:08.62 |    5:06.32   |      284162      |     307143
      13  | 68:15.19 |    5:14.44   |      307144      |     330737
      14  | 73:29.63 |    4:58.49   |      330738      |     353136
Характеристики диапазона извлечения и сообщения об ошибках
Выбранный диапазон
     Имя файла E:\Раздачи\High Wycombe - retoure\High Wycombe - retoure.wav
     Пиковый уровень 100.0 %
     Качество диапазона 100.0 %
     CRC теста 45C62D48
     CRC копии 45C62D48
     Копирование... OK
Ошибок не произошло
AccurateRip: сводка
Трек  1  нет в базе данных
Трек  2  нет в базе данных
Трек  3  нет в базе данных
Трек  4  нет в базе данных
Трек  5  нет в базе данных
Трек  6  нет в базе данных
Трек  7  нет в базе данных
Трек  8  нет в базе данных
Трек  9  нет в базе данных
Трек 10  нет в базе данных
Трек 11  нет в базе данных
Трек 12  нет в базе данных
Трек 13  нет в базе данных
Трек 14  нет в базе данных
Ни одного трека нет в базе AccurateRip
Конец отчёта
Код:
Started at: понедельник, 19. 10. 2009. - 18:11.32
1 file found
1 -===- E:\Раздачи\High Wycombe - retoure\High Wycombe - retoure.ape
  Extracted successfully
  Conclusion: this track is CDDA with probability 100%
  Tempfile successfully deleted.
Finished at: понедельник, 19. 10. 2009. - 18:21.21 (operation time: 0:09.49)
Label:Wycombe Music
Catalog#:CDWYC 11
Format:CD, Album
Country:Germany
Released:2004
Genre:Electronic
Style:Electro

Очень редкое и качественное издание в духе Clock DVA и Haujobb
Правила, инструкции, FAQ!!!
Торрент  Добавлен [26 июн 2020, 16:58] Скачать торрент Магнет ссылка
Скачать торрент
[ Размер 20.17 КБ / Просмотров 3 ]

Статус
Проверен 
 
Размер  497.04 МБ
Приватный: Нет (DHT включён)
.torrent скачан  0
 


     Отправить личное сообщение
   
Страница 1 из 1
Показать сообщения за:  Поле сортировки  
Начать новую тему Ответить на тему


Сейчас этот форум просматривают: нет зарегистрированных пользователей и гости: 0


Вы не можете начинать темы
Вы не можете отвечать на сообщения
Вы не можете редактировать свои сообщения
Вы не можете удалять свои сообщения
Вы не можете добавлять вложения

Перейти:  
cron