Начать новую тему Ответить на тему
Статистика раздачи
Размер: 356.39 МБ | Добавлен: 26 июн 2020, 16:57 | Скачали: 0
Сидеров: 0  [0 байт/сек]    Личеров: 0  [0 байт/сек]
Пред. тема | След. тема 

Автор
Сообщение

СообщениеДобавлено: 26 июн 2020, 16:57 

Ответить с цитатой 

Herzschlag / Fest Der Liebe
Жанр: Electro
Страна-производитель диска: Germany
Год издания диска: 2009
Издатель (лейбл): Infacted Recordings
Номер по каталогу: FACT 3121
Страна: Germany
Аудио кодек: FLAC (*.flac)
Тип рипа: tracks+.cue
Битрейт аудио: lossless
Продолжительность: 44:42
Источник (релизер): CD-R
Наличие сканов в содержимом раздачи: нет
Треклист:
1 Asystolie 4:55
2 Fest Der Liebe 2:20
3 Zuviel Von Mir 4:20
4 Alles Lüge 4:08
5 Dein Lied 4:02
6 Ein Alter Freund 6:19
7 Herzschlag 3:53
8 Freiheit 4:47
9 Steh Auf! 5:41
10 Niemand 4:13
Код:
Exact Audio Copy V0.99 prebeta 5 from 4. May 2009
EAC extraction logfile from 31. December 2010, 18:48
Herzschlag / Fest der Liebe
Used drive  : PIONEER DVD-RW  DVR-216D   Adapter: 0  ID: 0
Read mode               : Secure
Utilize accurate stream : Yes
Defeat audio cache      : Yes
Make use of C2 pointers : No
Read offset correction                      : 96
Overread into Lead-In and Lead-Out          : No
Fill up missing offset samples with silence : Yes
Delete leading and trailing silent blocks   : No
Null samples used in CRC calculations       : Yes
Used interface                              : Native Win32 interface for Win NT & 2000
Gap handling                                : Appended to previous track
Used output format              : User Defined Encoder
Selected bitrate                : 1024 kBit/s
Quality                         : High
Add ID3 tag                     : No
Command line compressor         : C:\Program Files (x86)\Exact Audio Copy\Flac\flac.exe
Additional command line options : -8 -V -T "ARTIST=%a" -T "TITLE=%t" -T "ALBUM=%g" -T "DATE=%y" -T "TRACKNUMBER=%n" -T "GENRE=%m" -T "COMMENT=EAC FLAC -8" %s
TOC of the extracted CD
     Track |   Start  |  Length  | Start sector | End sector
    ---------------------------------------------------------
        1  |  0:00.00 |  2:20.36 |         0    |    10535
        2  |  2:20.36 |  4:02.22 |     10536    |    28707
        3  |  6:22.58 |  4:13.13 |     28708    |    47695
        4  | 10:35.71 |  4:54.73 |     47696    |    69818
        5  | 15:30.69 |  4:20.65 |     69819    |    89383
        6  | 19:51.59 |  4:08.17 |     89384    |   108000
        7  | 24:00.01 |  3:53.03 |    108001    |   125478
        8  | 27:53.04 |  6:19.50 |    125479    |   153953
        9  | 34:12.54 |  5:41.32 |    153954    |   179560
       10  | 39:54.11 |  4:47.51 |    179561    |   201136
Track  1
     Filename I:\Audio\TORRENTS\Herzschlag - Fest Der Liebe-2009\tracks\ 01. Herzschlag – Asystolie.wav
     Pre-gap length  0:00:02.00
     Peak level 83.5 %
     Track quality 100.0 %
     Test CRC FF073ADD
     Copy CRC FF073ADD
     Cannot be verified as accurate (confidence 1)  [CB810B0E], AccurateRip returned [7DA98EF0]
     Copy OK
Track  2
     Filename I:\Audio\TORRENTS\Herzschlag - Fest Der Liebe-2009\tracks\ 02. Herzschlag – Fest der Liebe.wav
     Peak level 98.7 %
     Track quality 100.0 %
     Test CRC 0424813C
     Copy CRC 0424813C
     Cannot be verified as accurate (confidence 1)  [73F18824], AccurateRip returned [9040306C]
     Copy OK
Track  3
     Filename I:\Audio\TORRENTS\Herzschlag - Fest Der Liebe-2009\tracks\ 03. Herzschlag – Zuviel von mir.wav
     Peak level 98.7 %
     Track quality 100.0 %
     Test CRC F93C0487
     Copy CRC F93C0487
     Cannot be verified as accurate (confidence 1)  [88F1134B], AccurateRip returned [D923E4D9]
     Copy OK
Track  4
     Filename I:\Audio\TORRENTS\Herzschlag - Fest Der Liebe-2009\tracks\ 04. Herzschlag – Alles Lьge.wav
     Peak level 95.3 %
     Track quality 100.0 %
     Test CRC 49CD83E8
     Copy CRC 49CD83E8
     Cannot be verified as accurate (confidence 1)  [DDA2ECEC], AccurateRip returned [7237887C]
     Copy OK
Track  5
     Filename I:\Audio\TORRENTS\Herzschlag - Fest Der Liebe-2009\tracks\ 05. Herzschlag – Dein Lied.wav
     Peak level 98.7 %
     Track quality 100.0 %
     Test CRC CAF01743
     Copy CRC CAF01743
     Cannot be verified as accurate (confidence 1)  [D5DDBDA8], AccurateRip returned [2688C198]
     Copy OK
Track  6
     Filename I:\Audio\TORRENTS\Herzschlag - Fest Der Liebe-2009\tracks\ 06. Herzschlag – Ein alter Freund.wav
     Peak level 98.7 %
     Track quality 100.0 %
     Test CRC 314E9C1D
     Copy CRC 314E9C1D
     Cannot be verified as accurate (confidence 1)  [F7FD7911], AccurateRip returned [72BE8FD9]
     Copy OK
Track  7
     Filename I:\Audio\TORRENTS\Herzschlag - Fest Der Liebe-2009\tracks\ 07. Herzschlag – Herzschlag.wav
     Peak level 98.7 %
     Track quality 100.0 %
     Test CRC AE081D4D
     Copy CRC AE081D4D
     Cannot be verified as accurate (confidence 1)  [2403FE00], AccurateRip returned [6F5F80E0]
     Copy OK
Track  8
     Filename I:\Audio\TORRENTS\Herzschlag - Fest Der Liebe-2009\tracks\ 08. Herzschlag – Freiheit.wav
     Peak level 98.7 %
     Track quality 100.0 %
     Test CRC 401D1657
     Copy CRC 401D1657
     Cannot be verified as accurate (confidence 1)  [EA9F81DF], AccurateRip returned [D5D5557F]
     Copy OK
Track  9
     Filename I:\Audio\TORRENTS\Herzschlag - Fest Der Liebe-2009\tracks\ 09. Herzschlag – Steh auf!.wav
     Peak level 98.7 %
     Track quality 100.0 %
     Test CRC D3C16614
     Copy CRC D3C16614
     Cannot be verified as accurate (confidence 1)  [A77C8858], AccurateRip returned [CAFAAC64]
     Copy OK
Track 10
     Filename I:\Audio\TORRENTS\Herzschlag - Fest Der Liebe-2009\tracks\ 10. Herzschlag – Niemand.wav
     Peak level 98.7 %
     Track quality 100.0 %
     Test CRC F1DD0414
     Copy CRC F1DD0414
     Cannot be verified as accurate (confidence 1)  [E5CBECBC], AccurateRip returned [B9094B93]
     Copy OK
No tracks could be verified as accurate
You may have a different pressing from the one(s) in the database
No errors occurred
End of status report
Код:
REM GENRE Industrial
REM DATE 2009
REM DISCID 810A790A
REM COMMENT "ExactAudioCopy v0.99pb5"
PERFORMER "Herzschlag"
TITLE "Fest der Liebe"
FILE " 01. Herzschlag – Asystolie.wav" WAVE
  TRACK 01 AUDIO
    TITLE "Asystolie"
    PERFORMER "Herzschlag"
    INDEX 01 00:00:00
FILE " 02. Herzschlag – Fest der Liebe.wav" WAVE
  TRACK 02 AUDIO
    TITLE "Fest der Liebe"
    PERFORMER "Herzschlag"
    INDEX 01 00:00:00
FILE " 03. Herzschlag – Zuviel von mir.wav" WAVE
  TRACK 03 AUDIO
    TITLE "Zuviel von mir"
    PERFORMER "Herzschlag"
    INDEX 01 00:00:00
FILE " 04. Herzschlag – Alles Lьge.wav" WAVE
  TRACK 04 AUDIO
    TITLE "Alles Lьge"
    PERFORMER "Herzschlag"
    INDEX 01 00:00:00
FILE " 05. Herzschlag – Dein Lied.wav" WAVE
  TRACK 05 AUDIO
    TITLE "Dein Lied"
    PERFORMER "Herzschlag"
    INDEX 01 00:00:00
FILE " 06. Herzschlag – Ein alter Freund.wav" WAVE
  TRACK 06 AUDIO
    TITLE "Ein alter Freund"
    PERFORMER "Herzschlag"
    INDEX 01 00:00:00
FILE " 07. Herzschlag – Herzschlag.wav" WAVE
  TRACK 07 AUDIO
    TITLE "Herzschlag"
    PERFORMER "Herzschlag"
    INDEX 01 00:00:00
FILE " 08. Herzschlag – Freiheit.wav" WAVE
  TRACK 08 AUDIO
    TITLE "Freiheit"
    PERFORMER "Herzschlag"
    INDEX 01 00:00:00
FILE " 09. Herzschlag – Steh auf!.wav" WAVE
  TRACK 09 AUDIO
    TITLE "Steh auf!"
    PERFORMER "Herzschlag"
    INDEX 01 00:00:00
FILE " 10. Herzschlag – Niemand.wav" WAVE
  TRACK 10 AUDIO
    TITLE "Niemand"
    PERFORMER "Herzschlag"
    INDEX 01 00:00:00
Код:
Started at: пятница, 31. 12. 2010. - 17:59.46
10 files found
01 -===- track 1 in drive PIONEER DVD-RW  DVR-216D
  Track ripped successfully
  Conclusion: this track is CDDA with probability 100%
  Tempfile successfully deleted.
02 -===- track 2 in drive PIONEER DVD-RW  DVR-216D
  Track ripped successfully
  Conclusion: this track is CDDA with probability 100%
  Tempfile successfully deleted.
03 -===- track 3 in drive PIONEER DVD-RW  DVR-216D
  Track ripped successfully
  Conclusion: this track is CDDA with probability 100%
  Tempfile successfully deleted.
04 -===- track 4 in drive PIONEER DVD-RW  DVR-216D
  Track ripped successfully
  Conclusion: this track is CDDA with probability 100%
  Tempfile successfully deleted.
05 -===- track 5 in drive PIONEER DVD-RW  DVR-216D
  Track ripped successfully
  Conclusion: this track is CDDA with probability 100%
  Tempfile successfully deleted.
06 -===- track 6 in drive PIONEER DVD-RW  DVR-216D
  Track ripped successfully
  Conclusion: this track is CDDA with probability 100%
  Tempfile successfully deleted.
07 -===- track 7 in drive PIONEER DVD-RW  DVR-216D
  Track ripped successfully
  Conclusion: this track is CDDA with probability 100%
  Tempfile successfully deleted.
08 -===- track 8 in drive PIONEER DVD-RW  DVR-216D
  Track ripped successfully
  Conclusion: this track is CDDA with probability 100%
  Tempfile successfully deleted.
09 -===- track 9 in drive PIONEER DVD-RW  DVR-216D
  Track ripped successfully
  Conclusion: this track is CDDA with probability 100%
  Tempfile successfully deleted.
10 -===- track 10 in drive PIONEER DVD-RW  DVR-216D
  Track ripped successfully
  Conclusion: this track is CDDA with probability 100%
  Tempfile successfully deleted.
Finished at: пятница, 31. 12. 2010. - 18:06.41 (operation time: 0:06.54)


Доп. информация: http://www.discogs.com/Herzschlag-Fest-Der-Liebe/release/1862381
http://www.myspace.com/herzschlagmusik
http://www.lastfm.ru/music/herzschlag
The club targeted dark-electro project of noise act SHNARPH! frontman Matthias “Matthes” Ewald.
Matthias Ewald
Правила, инструкции, FAQ!!!
Торрент  Добавлен [26 июн 2020, 16:57] Скачать торрент Магнет ссылка
Скачать торрент
[ Размер 15.62 КБ / Просмотров 6 ]

Статус
Проверен 
 
Размер  356.39 МБ
Приватный: Нет (DHT включён)
.torrent скачан  0
 


     Отправить личное сообщение
   
Страница 1 из 1
Показать сообщения за:  Поле сортировки  
Начать новую тему Ответить на тему


Сейчас этот форум просматривают: нет зарегистрированных пользователей и гости: 0


Вы не можете начинать темы
Вы не можете отвечать на сообщения
Вы не можете редактировать свои сообщения
Вы не можете удалять свои сообщения
Вы не можете добавлять вложения

Перейти:  
cron