Начать новую тему Ответить на тему
Статистика раздачи
Размер: 312.9 МБ | Добавлен: 26 июн 2020, 17:43 | Скачали: 0
Сидеров: 0  [0 байт/сек]    Личеров: 0  [0 байт/сек]
Пред. тема | След. тема 

Автор
Сообщение

СообщениеДобавлено: 26 июн 2020, 17:43 

Ответить с цитатой 

Das Ich - Die Propheten
Жанр: Electro, Gothic
Год выпуска диска: 1991
Производитель диска: Германия
Аудио кодек: FLAC
Тип рипа: image+.cue
Битрейт аудио: lossless
Продолжительность: 44:14.25
Трэклист:
01. Es ist ja Krieg...
02. Kain und Abel
03. Die Propheten
04. Des Satans neue Kleider
05. Gottes Tod
06. Der HaB
07. Lugen und das Ich
08. Frevel
Exact Audio Copy V0.99 prebeta 4 from 23. January 2008
Отчёт EAC об извлечении, выполненном 15. октября 2008, 18:54
Das Ich / Die Propheten
Дисковод: PIONEER DVD-RW DVR-111D Adapter: 0 ID: 0
Режим чтения : Достоверность
Использование точного потока : Да
Отключение кэша аудио : Да
Использование указателей C2 : Нет
Коррекция смещения при чтении : 48
Способность читать области Lead-in и Lead-out : Нет
Заполнение пропущенных сэмплов тишиной : Да
Удаление блоков с тишиной в начале и конце : Нет
При вычислениях CRC использовались нулевые сэмплы : Да
Интерфейс : Встроенный Win32-интерфейс для Win NT/2000
Выходной формат : Пользовательский кодировщик
Выбранный битрейт : 1024 kBit/s
Качество : Высокий
Добавление ID3-тэга : Нет
Утилита сжатия : C:\Program Files\Exact Audio Copy\FLAC\FLAC.EXE
Дополнительные параметры : -8 -V -T "ARTIST=%a" -T "TITLE=%t" -T "ALBUM=%g" -T "DATE=%y" -T "TRACKNUMBER=%n" -T "GENRE=%m" -T "COMMENT=%e" %s -o %d
TOC извлечённого CD
Трек | Старт | Длительность | Начальный сектор | Конечный сектор
---------------------------------------------------------------------
1 | 0:00.00 | 5:58.47 | 0 | 26896
2 | 5:58.47 | 5:37.20 | 26897 | 52191
3 | 11:35.67 | 7:23.28 | 52192 | 85444
4 | 18:59.20 | 6:10.55 | 85445 | 113249
5 | 25:10.00 | 8:09.00 | 113250 | 149924
6 | 33:19.00 | 7:11.40 | 149925 | 182289
7 | 40:30.40 | 3:43.60 | 182290 | 199074
8 | 44:14.25 | 5:58.50 | 199075 | 225974
Характеристики диапазона извлечения и сообщения об ошибках
Выбранный диапазон
Имя файла C:\Documents and Settings\Sigma\Рабочий стол\Новая папка\Absurd Minds - Herzlos [2004]\Das Ich - Die Propheten [1991]\Das Ich - Die Propheten.wav
Пиковый уровень 82.1 %
Качество диапазона 100.0 %
CRC теста F07D1C7E
CRC копии F07D1C7E
Копирование... OK
Ошибок не произошло
AccurateRip: сводка
Трек 1 точность не определена (достоверность 2) [D6F1E550], AccurateRip вернул [D86D7459]
Трек 2 точность не определена (достоверность 2) [23DDC709], AccurateRip вернул [639EF95B]
Трек 3 точность не определена (достоверность 2) [D7FE9E0A], AccurateRip вернул [A9636F70]
Трек 4 точность не определена (достоверность 2) [7B5F1960], AccurateRip вернул [4C08357E]
Трек 5 точность не определена (достоверность 2) [985F72AF], AccurateRip вернул [A0372213]
Трек 6 точность не определена (достоверность 2) [549415EA], AccurateRip вернул [0513B4E1]
Трек 7 точность не определена (достоверность 2) [41ECC315], AccurateRip вернул [BA30790D]
Трек 8 точность не определена (достоверность 2) [435350C7], AccurateRip вернул [AFAA6A7C]
Ни один трек не прошёл проверки на точность
В вашей базе может быть иной вариант штамповки диска
Конец отчёта
AUDIOCHECKER v2.0 beta (build 457) - by Dester - opdester@freemail.hu
~~~~~~~~~~~~~~~~~~~~~~~~~~~~~~~~~~
-=== DO NOT EDIT THIS FILE! ===-
Path: ...\Das Ich - Die Propheten [1991]
1 -=- Das Ich - Die Propheten.flac -=- CDDA (99%)
60998660
Доп. информация: Das Ich — немецкая группа, работающая в стилях дарквэйв, индастриал, электро-готик. Название Das Ich заимствовано из работ основателя психоанализа Зигмунда Фрейда (например Freud, Sigmund (1923), Das Ich und das Es) и тесно связано с термином Эго. Основной мотив творчества группы — экспрессионистские стихи, наложенные на электронную музыку. На концертах музыканты широко используют театральные приёмы, декорации, грим.
Источник http://ru.wikipedia.org/wiki/Das_Ich
Правила, инструкции, FAQ!!!
Торрент  Добавлен [26 июн 2020, 17:43] Скачать торрент Магнет ссылка
Скачать торрент
[ Размер 12.89 КБ / Просмотров 11 ]

Статус
Проверен 
 
Размер  312.9 МБ
Приватный: Нет (DHT включён)
.torrent скачан  0
 


     Отправить личное сообщение
   
Страница 1 из 1
Показать сообщения за:  Поле сортировки  
Начать новую тему Ответить на тему


Сейчас этот форум просматривают: нет зарегистрированных пользователей и гости: 0


Вы не можете начинать темы
Вы не можете отвечать на сообщения
Вы не можете редактировать свои сообщения
Вы не можете удалять свои сообщения
Вы не можете добавлять вложения

Перейти:  
cron