Начать новую тему Ответить на тему
Статистика раздачи
Размер: 483.47 МБ | Добавлен: 26 июн 2020, 20:44 | Скачали: 0
Сидеров: 0  [0 байт/сек]    Личеров: 0  [0 байт/сек]
Пред. тема | След. тема 

Автор
Сообщение

СообщениеДобавлено: 26 июн 2020, 20:44 

Ответить с цитатой 

Various Artists ‎– The Gothic Compilation Part II. 1995
Жанр: Electro, Goth Rock, Ethereal, Industrial
Носитель: CD
Страна-производитель диска (релиза): Germany
Год издания: 1995
Издатель (лейбл): Gothic Records
Номер по каталогу: CD 003
Страна исполнителя (группы): Germany
Аудиокодек: FLAC (*.flac)
Тип рипа: image+.cue
Продолжительность: 1:11:37
Источник: собственный рип
Наличие сканов в содержимом раздачи: нет
Треклист:
1 . The Silverman - This Fragile Love 3:03
2 . Lex Talionis - Messenger 3:49
3 . Stendal Blast - Ein Neuer Mensch 4:33
4 . Fahrenheit 451 - Sorrow And Pain 6:51
5 . Edward Ka-Spel - Dr. Blizz 7:56
6 . Ahab - Tod 5:31
7 . Fliehende Stürme - Schneetreiben 5:57
8 . Der Fluch - Rache Der Verachteten 1:46
9 . Cream VIII - Und Will Dein Blut 3:48
10 . La Morte De La Maison - Accross 4:51
11 . Exedra - Agony 4:09
12 . The Legendary Pink Dots - Nadelstadt 5:54
13 . La Luna Oc Nithar - Skeggiold 6:28
14 . Dorsetshire - Schreie (Live) 5:08
15 . Phallus Dei - Confessio 1:51
16 . Phallus Dei - Man's Son 6:16
Код:
Exact Audio Copy V1.3 from 2. September 2016
Отчёт EAC об извлечении, выполненном 6. марта 2020, 9:42
Various Artists / The Gothic Compilation, Part II
Дисковод: HL-DT-STDVD+-RW GU90N   Adapter: 1  ID: 0
Режим чтения                 : Достоверность
Использование точного потока : Да
Отключение кэша аудио        : Да
Использование указателей C2  : Нет
Коррекция смещения при чтении                     : 102
Способность читать области Lead-in и Lead-out     : Да
Заполнение пропущенных сэмплов тишиной            : Да
Удаление блоков с тишиной в начале и конце        : Нет
При вычислениях CRC использовались нулевые сэмплы : Да
Интерфейс                                         : Встроенный Win32-интерфейс для Win NT/2000
Выходной формат : Внутренние WAV-операции
Формат сэмплов  : 44.100 Гц; 16 бит; стерео
TOC извлечённого CD
     Трек |   Старт  | Длительность | Начальный сектор | Конечный сектор
    ---------------------------------------------------------------------
       1  |  0:00.00 |    3:02.65   |           0      |      13714
       2  |  3:02.65 |    3:49.15   |       13715      |      30904
       3  |  6:52.05 |    4:33.37   |       30905      |      51416
       4  | 11:25.42 |    6:50.70   |       51417      |      82236
       5  | 18:16.37 |    7:56.35   |       82237      |     117971
       6  | 26:12.72 |    5:31.10   |      117972      |     142806
       7  | 31:44.07 |    5:57.35   |      142807      |     169616
       8  | 37:41.42 |    1:46.40   |      169617      |     177606
       9  | 39:28.07 |    3:48.18   |      177607      |     194724
      10  | 43:16.25 |    4:51.42   |      194725      |     216591
      11  | 48:07.67 |    4:08.58   |      216592      |     235249
      12  | 52:16.50 |    5:54.35   |      235250      |     261834
      13  | 58:11.10 |    6:27.70   |      261835      |     290929
      14  | 64:39.05 |    5:07.62   |      290930      |     314016
      15  | 69:46.67 |    1:50.58   |      314017      |     322324
      16  | 71:37.50 |    6:17.15   |      322325      |     350614
Характеристики диапазона извлечения и сообщения об ошибках
Выбранный диапазон
     Имя файла D:\Various Artists ‎– The Gothic Compilation Part II. 1995\Various Artists - The Gothic Compilation, Part II.wav
     Подозрительная позиция 1:17:27
     Пиковый уровень 99.1 %
     Скорость извлечения 4.3 X
     Качество диапазона 99.9 %
     CRC копии FBC149D6
     Копирование завершено
Были ошибки
AccurateRip: сводка
Трек  1  : извлечено точно (доверие 8)  [8C90B61E]  (AR v2)
Трек  2  : извлечено точно (доверие 8)  [A555A732]  (AR v2)
Трек  3  : извлечено точно (доверие 8)  [0EC157DC]  (AR v2)
Трек  4  : извлечено точно (доверие 8)  [CD3BDB5D]  (AR v2)
Трек  5  : извлечено точно (доверие 8)  [0D8E8F85]  (AR v2)
Трек  6  : извлечено точно (доверие 8)  [5E8C9DDF]  (AR v2)
Трек  7  : извлечено точно (доверие 8)  [D631EEBA]  (AR v2)
Трек  8  : извлечено точно (доверие 8)  [52107EAF]  (AR v2)
Трек  9  : извлечено точно (доверие 8)  [121F5660]  (AR v2)
Трек 10  : извлечено точно (доверие 8)  [12C31DA3]  (AR v2)
Трек 11  : извлечено точно (доверие 8)  [07A46835]  (AR v2)
Трек 12  : извлечено точно (доверие 8)  [4B92FE6C]  (AR v2)
Трек 13  : извлечено точно (доверие 8)  [449AEBE1]  (AR v2)
Трек 14  : извлечено точно (доверие 8)  [F202015B]  (AR v2)
Трек 15  : извлечено точно (доверие 7)  [F21CF37C]  (AR v2)
Трек 16  точность не определена (достоверность 7)  [A81232A2], AccurateRip вернул [3A1D3254]  (AR v2)
15 трек(и) скопированы точно
 1 трек(и) не удалось проверить на точность
Некоторые треки не прошли проверку на точность
Конец отчёта
---- CUETools DB Plugin V2.1.6
[CTDB TOCID: BGsiw8kUWxR3YV5_NLaE0jaikjo-] found
Submit result: BGsiw8kUWxR3YV5_NLaE0jaikjo- has been submitted
Track | CTDB Status
  1   | (16/16) Accurately ripped
  2   | (16/16) Accurately ripped
  3   | (16/16) Accurately ripped
  4   | (16/16) Accurately ripped
  5   | (16/16) Accurately ripped
  6   | (16/16) Accurately ripped
  7   | (16/16) Accurately ripped
  8   | (16/16) Accurately ripped
  9   | (16/16) Accurately ripped
 10   | (16/16) Accurately ripped
 11   | (16/16) Accurately ripped
 12   | (16/16) Accurately ripped
 13   | (16/16) Accurately ripped
 14   | (16/16) Accurately ripped
 15   | (16/16) Accurately ripped
 16   | (15/16) Differs in 205 samples @05:49:42-05:49:43
If you are sure that your rip contains errors, you can use CUETools to repair it.
==== Контрольная сумма отчёта ED68EFD905C6CBACA467BDDEBAE89E86A3EDA7C02B75B645004F959F8E2A4878 ====
Код:
REM GENRE Gothic
REM DATE 1995
REM DISCID 10124210
REM COMMENT "ExactAudioCopy v1.3"
PERFORMER "Various Artists"
TITLE "The Gothic Compilation, Part II"
REM COMPOSER ""
FILE "Various Artists - The Gothic Compilation, Part II.wav" WAVE
  TRACK 01 AUDIO
    TITLE "This Fragile Love"
    PERFORMER "The Silverman"
    REM COMPOSER ""
    INDEX 01 00:00:00
  TRACK 02 AUDIO
    TITLE "Messenger"
    PERFORMER "Lex Talionis"
    REM COMPOSER ""
    INDEX 01 03:02:65
  TRACK 03 AUDIO
    TITLE "Ein neuer Mensch"
    PERFORMER "Stendal Blast"
    REM COMPOSER ""
    INDEX 00 06:51:30
    INDEX 01 06:52:05
  TRACK 04 AUDIO
    TITLE "Sorrow and Pain"
    PERFORMER "Fahrenheit 451"
    REM COMPOSER ""
    INDEX 00 11:24:65
    INDEX 01 11:25:42
  TRACK 05 AUDIO
    TITLE "Dr. Blizz"
    PERFORMER "Edward Ka-Spel"
    REM COMPOSER ""
    INDEX 00 18:15:17
    INDEX 01 18:16:37
  TRACK 06 AUDIO
    TITLE "Tod"
    PERFORMER "Ahab"
    REM COMPOSER ""
    INDEX 00 26:10:72
    INDEX 01 26:12:72
  TRACK 07 AUDIO
    TITLE "Schneetreiben"
    PERFORMER "Fliehende Sturme"
    REM COMPOSER ""
    INDEX 00 31:43:07
    INDEX 01 31:44:07
  TRACK 08 AUDIO
    TITLE "Rache der Verachteten"
    PERFORMER "Der Fluch"
    REM COMPOSER ""
    INDEX 00 37:40:22
    INDEX 01 37:41:42
  TRACK 09 AUDIO
    TITLE "Und will dein Blut"
    PERFORMER "Cream 8"
    REM COMPOSER ""
    INDEX 00 39:26:40
    INDEX 01 39:28:07
  TRACK 10 AUDIO
    TITLE "Across"
    PERFORMER "La Morte de la Maison"
    REM COMPOSER ""
    INDEX 00 43:14:35
    INDEX 01 43:16:25
  TRACK 11 AUDIO
    TITLE "Agony"
    PERFORMER "Exedra"
    REM COMPOSER ""
    INDEX 00 48:06:32
    INDEX 01 48:07:67
  TRACK 12 AUDIO
    TITLE "Nadelstadt"
    PERFORMER "The Legendary Pink Dots"
    REM COMPOSER ""
    INDEX 01 52:16:50
  TRACK 13 AUDIO
    TITLE "Skeggiold"
    PERFORMER "La Luna Oc Nithar"
    REM COMPOSER ""
    INDEX 00 58:09:25
    INDEX 01 58:11:10
  TRACK 14 AUDIO
    TITLE "Schreie (live)"
    PERFORMER "Dorsetshire"
    REM COMPOSER ""
    INDEX 00 64:37:30
    INDEX 01 64:39:05
  TRACK 15 AUDIO
    TITLE "Confessio"
    PERFORMER "Phallus Dei"
    REM COMPOSER ""
    INDEX 00 69:45:25
    INDEX 01 69:46:67
  TRACK 16 AUDIO
    TITLE "Man's Son"
    PERFORMER "Phallus Dei"
    REM COMPOSER ""
    INDEX 01 71:37:50
Код:
foobar2000 1.4 / Замер динамического диапазона (DR) 1.1.1
Дата отчёта:  2020-03-06 09:44:32
--------------------------------------------------------------------------------
Анализ:   Edward Ka-Spel / The Gothic Compilation, Part II (1)
          Exedra / The Gothic Compilation, Part II (2)
--------------------------------------------------------------------------------
DR         РџРёРєРё         RMS           РџСЂРѕРґРѕР»Р¶РёС‚ельность трека
--------------------------------------------------------------------------------
DR8       -0.08 РґР‘   -10.22 РґР‘      7:56 05-Dr. Blizz
DR9       -0.17 РґР‘   -10.37 РґР‘      4:09 11-Agony
--------------------------------------------------------------------------------
Количество треков: 2
Реальные значения DR: DR9
Частота:   44100 Гц
Каналов:   2
Разрядность:   16
Битрейт:   1411 РєР±РёС‚/СЃ
Кодек:   PCM
================================================================================
--------------------------------------------------------------------------------
Статистика для:  10-Across
Количество сэмплов: 12857796
Продолжительность: 4:52
--------------------------------------------------------------------------------
           Р›РµРІС‹Р№             РџСЂР°РІС‹Р№
РџРёРєРё:               -0.15 РґР‘     ---     -0.10 РґР‘
Средний RMS:             -10.61 РґР‘     ---     -9.42 РґР‘
DR канала:               9.69 РґР‘     ---      8.42 РґР‘
--------------------------------------------------------------------------------
Реальные значения DR: DR9
Частота:   44100 Гц
Каналов:   2
Разрядность:   16
Битрейт:   1411 РєР±РёС‚/СЃ
Кодек:   PCM
================================================================================
--------------------------------------------------------------------------------
Анализ:   Lex Talionis / The Gothic Compilation, Part II (1)
          Phallus Dei / The Gothic Compilation, Part II (2-3)
--------------------------------------------------------------------------------
DR         РџРёРєРё         RMS           РџСЂРѕРґРѕР»Р¶РёС‚ельность трека
--------------------------------------------------------------------------------
DR10      -1.28 РґР‘   -13.30 РґР‘      3:49 02-Messenger
DR9       -0.16 РґР‘   -11.20 РґР‘      1:51 15-Confessio
DR10      -0.17 РґР‘   -11.48 РґР‘      6:17 16-Man's Son
--------------------------------------------------------------------------------
Количество треков: 3
Реальные значения DR: DR10
Частота:   44100 Гц
Каналов:   2
Разрядность:   16
Битрейт:   1411 РєР±РёС‚/СЃ
Кодек:   PCM
================================================================================
--------------------------------------------------------------------------------
Анализ:   Stendal Blast / The Gothic Compilation, Part II (1)
          The Legendary Pink Dots / The Gothic Compilation, Part II (2)
--------------------------------------------------------------------------------
DR         РџРёРєРё         RMS           РџСЂРѕРґРѕР»Р¶РёС‚ельность трека
--------------------------------------------------------------------------------
DR7       -0.11 РґР‘    -8.76 РґР‘      4:33 03-Ein neuer Mensch
DR9       -0.17 РґР‘   -11.04 РґР‘      5:54 12-Nadelstadt
--------------------------------------------------------------------------------
Количество треков: 2
Реальные значения DR: DR8
Частота:   44100 Гц
Каналов:   2
Разрядность:   16
Битрейт:   1411 РєР±РёС‚/СЃ
Кодек:   PCM
================================================================================
--------------------------------------------------------------------------------
Статистика для:  01-This Fragile Love
Количество сэмплов: 8064420
Продолжительность: 3:03
--------------------------------------------------------------------------------
           Р›РµРІС‹Р№             РџСЂР°РІС‹Р№
РџРёРєРё:               -1.97 РґР‘     ---     -0.17 РґР‘
Средний RMS:             -18.27 РґР‘     ---    -16.56 РґР‘
DR канала:              12.16 РґР‘     ---     11.94 РґР‘
--------------------------------------------------------------------------------
Реальные значения DR: DR12
Частота:   44100 Гц
Каналов:   2
Разрядность:   16
Битрейт:   1411 РєР±РёС‚/СЃ
Кодек:   PCM
==============================================================
Правила, инструкции, FAQ!!!
Торрент  Добавлен [26 июн 2020, 20:44] Скачать торрент Магнет ссылка
Скачать торрент
[ Размер 19.68 КБ / Просмотров 8 ]

Статус
Проверен 
 
Размер  483.47 МБ
Приватный: Нет (DHT включён)
.torrent скачан  0
 


     Отправить личное сообщение
   
Страница 1 из 1
Показать сообщения за:  Поле сортировки  
Начать новую тему Ответить на тему


Сейчас этот форум просматривают: нет зарегистрированных пользователей и гости: 0


Вы не можете начинать темы
Вы не можете отвечать на сообщения
Вы не можете редактировать свои сообщения
Вы не можете удалять свои сообщения
Вы не можете добавлять вложения

Перейти:  
cron