Начать новую тему Ответить на тему
Статистика раздачи
Размер: 586.26 МБ | Добавлен: 26 июн 2020, 17:05 | Скачали: 0
Сидеров: 0  [0 байт/сек]    Личеров: 0  [0 байт/сек]
Пред. тема | След. тема 

Автор
Сообщение

СообщениеДобавлено: 26 июн 2020, 17:05 

Ответить с цитатой 

Intra-Venus - Irreverence
http://ipicture.ru/
Жанр: Electro / Goth / Industrial / Trance
Год выпуска диска: 2004
Производитель диска: Россия (Shadowplay)
Аудио кодек: FLAC
Тип рипа: image+.cue
Битрейт аудио: lossless
Продолжительность: 1:16:55
Трэклист:
1 Innocence
2 Resurrection
3 Promise
4 Anything's Possible
5 Falling
6 Healing
7 Lies
8 Confusion
9 Future
10 Splinters
11 Judgement
12 Persecution
13 Persecution (Martyrs)
14 Deathwish (Focus Hard)
Audio - Mark Tansley
Voice - Apollos
Bonus tracks:
Persecution (Martyrs) remixed by Intra-Venus
Deathwish (Focus Hard) remixed by Squid
www.nightbreedmusic.co.uk
(c) & (p) 2001 Nightbreed Records.
(p) 2004 Shadowplay Records.
То, о чём так долго говорили кибер-готические революционеры с Nightbreed Records, свершилось - долгожданный полноформатный альбом Intra-Venus наконец-то is here! Ещё со времён легендарной Suspiria, группы, предшествовавшей нынешним Intra-Venus, внимание гот-публики было приковано к этим талантливым и инновативным английским музыкантам. После переименования и присоединения к Марку Тэнсли нового и чертовски даровитого вокалиста Аполлоса, Intra-Venus умело подогревали этот интерес к себе - альбому предшествовали два коротких, но весьма впечатляющих релиза - дебютный мини-CD "Pray Silence!" и сингл "Persecution", на каждом из них многократно продемонстрировано умение музыкантов сочинять шикарные клубно-танцевальные боевики. Хорошо, но мало - вот тот удинственный упрёк, от которого полностью избавит нас новый 70-минутный лонгплэй "Irreverence".
Звучание альбома действительно кажется мне революционным - по крайней мере, для современной британской electro-goth сцены - настолько удачный сплав electro, industrial, trance и goth не удавался, на мой взгляд, ещё никому из их коллег и конкурентов.
Фирменные черты Intra-Venus - высокотехнологичная электронная музыка, явно предназначенная для танцполов, и мягкий, бархатный, но мощный вокал Аполлоса (хорошо знакомые с языком слушатели смогут отметить и интеллигентную, остроумную лирику песен). Бьющая фонтаном энергия наисовременнейшей синтетической электроники и, вместе с тем, ясное ощущение, что перед вами не серийные новомодные electro-звёзды, а исполнители, черпающие вдохновение в первоисточниках готики - это не может не вызывать искренней симпатии. Название группы (напоминающее слово "intravenous", переводимое как "внутривенный") кое у кого может вызвать hard-drugs-ассоциации - и это правильно! Настоящая музыка всегда является сильнодействующим наркотиком для неизлечимых меломанов - признаюсь, что и я целую неделю, забыв обо всех остальных дисках, по несколько раз на repeat крутил "Irreverence", чтобы ещё и ещё продлить эйфористическое удовольствие! Несмотря на значительную продолжительность, альбом слушается очень хорошо благодаря отличным мелодиям и аранжировкам, каждая из 12 песен - от разрушительных electro-trance-боевиков до почти лирических synth-композиций - мождет блеснуть присущей именно ей красотой. Кстати, трек "Resurrection" уже неоднократно звучал на goth-dot-ru вечеринках в клубе "Точка", неизменно вызывая бурный энтузиазм на танцполе.
Mad Max 2
(Рецензия взята из журнала Painkiller # 13, 2001)
Exact Audio Copy V0.99 prebeta 4 from 23. January 2008
EAC extraction logfile from 30. August 2009, 14:09
Intra-Venus / Irreverence
Used drive : Optiarc DVD RW AD-7173A Adapter: 0 ID: 0
Read mode : Secure
Utilize accurate stream : Yes
Defeat audio cache : Yes
Make use of C2 pointers : No
Read offset correction : 48
Overread into Lead-In and Lead-Out : No
Fill up missing offset samples with silence : Yes
Delete leading and trailing silent blocks : No
Null samples used in CRC calculations : Yes
Used interface : Installed external ASPI interface
Used output format : User Defined Encoder
Selected bitrate : 1024 kBit/s
Quality : High
Add ID3 tag : No
Command line compressor : C:\Program Files\Exact Audio Copy\flac.exe
Additional command line options : --best -T "ARTIST=%a" -T "TITLE=%t" -T "ALBUM=%g" -T "DATE=%y" -T "TRACKNUMBER=%n" -T "GENRE=%m" %s
TOC of the extracted CD
Track | Start | Length | Start sector | End sector
---------------------------------------------------------
1 | 0:00.00 | 6:41.74 | 0 | 30148
2 | 6:41.74 | 4:12.67 | 30149 | 49115
3 | 10:54.66 | 6:42.45 | 49116 | 79310
4 | 17:37.36 | 5:20.70 | 79311 | 103380
5 | 22:58.31 | 4:29.29 | 103381 | 123584
6 | 27:27.60 | 5:41.36 | 123585 | 149195
7 | 33:09.21 | 5:03.33 | 149196 | 171953
8 | 38:12.54 | 6:37.48 | 171954 | 201776
9 | 44:50.27 | 5:40.50 | 201777 | 227326
10 | 50:31.02 | 4:54.33 | 227327 | 249409
11 | 55:25.35 | 5:23.25 | 249410 | 273659
12 | 60:48.60 | 5:25.58 | 273660 | 298092
13 | 66:14.43 | 6:01.63 | 298093 | 325230
14 | 72:16.31 | 4:38.63 | 325231 | 346143
Range status and errors
Selected range
Filename D:\Музыка\Intra-Venus\Intra-Venus - Irreverence.wav
Peak level 100.0 %
Range quality 99.9 %
Test CRC C3FFDDAD
Copy CRC C3FFDDAD
Copy OK
No errors occurred
AccurateRip summary
Track 1 not present in database
Track 2 not present in database
Track 3 not present in database
Track 4 not present in database
Track 5 not present in database
Track 6 not present in database
Track 7 not present in database
Track 8 not present in database
Track 9 not present in database
Track 10 not present in database
Track 11 not present in database
Track 12 not present in database
Track 13 not present in database
Track 14 not present in database
None of the tracks are present in the AccurateRip database
End of status report
Рип с лицензионного издания 2004 года Shadowplay Records.
Правила, инструкции, FAQ!!!
Торрент  Добавлен [26 июн 2020, 17:05] Скачать торрент Магнет ссылка
Скачать торрент
[ Размер 12.11 КБ / Просмотров 4 ]

Статус
Проверен 
 
Размер  586.26 МБ
Приватный: Нет (DHT включён)
.torrent скачан  0
 


     Отправить личное сообщение
   
Страница 1 из 1
Показать сообщения за:  Поле сортировки  
Начать новую тему Ответить на тему


Сейчас этот форум просматривают: нет зарегистрированных пользователей и гости: 0


Вы не можете начинать темы
Вы не можете отвечать на сообщения
Вы не можете редактировать свои сообщения
Вы не можете удалять свои сообщения
Вы не можете добавлять вложения

Перейти:  
cron