Начать новую тему Ответить на тему
Статистика раздачи
Размер: 441.44 МБ | Добавлен: 26 июн 2020, 20:39 | Скачали: 0
Сидеров: 0  [0 байт/сек]    Личеров: 0  [0 байт/сек]
Пред. тема | След. тема 

Автор
Сообщение

СообщениеДобавлено: 26 июн 2020, 20:39 

Ответить с цитатой 

Roppongi Inc. Project (R.I.P.) - Hard Times...No Future? [Digipack Edition]
Жанр: Еlectro, Freestyle, Industrial
Производитель диска: РФ
Год выпуска диска: 2008
Издатель (лейбл): Q-Code Records
Номер по каталогу: 460712236023
Страна: РФ
Аудио кодек: APE
Тип рипа: image+.cue
Битрейт аудио: lossless
Продолжительность: 01:15:41
Источник (релизер): Рип с личного СД
Наличие сканов в содержимом раздачи: да
Трэклист:
01. Fcuk Up (Intro) 3:37
02. 230206 6:46
03. Easy Life (Kudasai) 4:25
04. Dont Be Proud 5:00
05. Relax 6:13
06. Still Acid 4:57
07. Frozen Time (Lullaby II) 6:58
08. Oasis (Cemetery) 3:58
09. No Future? 5:05
10. Hard Times... 5:02
11. Pop Muzik Never Die 3:32
12. Minimum Maximum (All Or Nothing) 7:12
13. Exit (Outro) 3:42
14. 230206 (Alternative Pop Remix By Severin 24) 3:52
15. Rip & Dbs (Hard Times Theme - Freundschaft Vox Remix By Dbs) 4:18
16. Requiem (Hidden Track) 1:04
Код:
 Exact Audio Copy V0.99 prebeta 5 from 4. May 2009
Отчёт EAC об извлечении, выполненном 11. октября 2009, 23:03
Roppongi Inc. Project  / Hard Times...No Future?
Дисковод: Optiarc DVD RW AD-7201S   Adapter: 1  ID: 1
Режим чтения                 : Достоверность
Использование точного потока : Да
Отключение кэша аудио        : Да
Использование указателей C2  : Нет
Коррекция смещения при чтении                     : 48
Способность читать области Lead-in и Lead-out     : Нет
Заполнение пропущенных сэмплов тишиной            : Да
Удаление блоков с тишиной в начале и конце        : Нет
При вычислениях CRC использовались нулевые сэмплы : Да
Интерфейс                                         : Встроенный Win32-интерфейс для Win NT/2000
Выходной формат : Внутренние WAV-операции
Формат сэмплов  : 44.100 Гц; 16 бит; стерео
TOC извлечённого CD
     Трек |   Старт  | Длительность | Начальный сектор | Конечный сектор
    ---------------------------------------------------------------------
       1  |  0:00.00 |    3:37.31   |           0      |      16305
       2  |  3:37.31 |    6:46.23   |       16306      |      46778
       3  | 10:23.54 |    4:25.15   |       46779      |      66668
       4  | 14:48.69 |    5:00.04   |       66669      |      89172
       5  | 19:48.73 |    6:13.15   |       89173      |     117162
       6  | 26:02.13 |    4:56.56   |      117163      |     139418
       7  | 30:58.69 |    6:58.21   |      139419      |     170789
       8  | 37:57.15 |    3:58.35   |      170790      |     188674
       9  | 41:55.50 |    5:04.49   |      188675      |     211523
      10  | 47:00.24 |    5:01.60   |      211524      |     234158
      11  | 52:02.09 |    3:31.65   |      234159      |     250048
      12  | 55:33.74 |    7:11.42   |      250049      |     282415
      13  | 62:45.41 |    3:41.45   |      282416      |     299035
      14  | 66:27.11 |    3:52.19   |      299036      |     316454
      15  | 70:19.30 |    4:17.43   |      316455      |     335772
      16  | 74:36.73 |    1:03.52   |      335773      |     340549
Характеристики диапазона извлечения и сообщения об ошибках
Выбранный диапазон
     Имя файла D:\Documents and Settings\Rodexx\Рабочий стол\Roppongi Inc. Project\Roppongi Inc. Project  - Hard Times...No Future.wav
     Пиковый уровень 97.7 %
     Качество диапазона 100.0 %
     CRC теста 9D1D4F61
     CRC копии 9D1D4F61
     Копирование... OK
Ошибок не произошло
AccurateRip: сводка
Трек  1  нет в базе данных
Трек  2  нет в базе данных
Трек  3  нет в базе данных
Трек  4  нет в базе данных
Трек  5  нет в базе данных
Трек  6  нет в базе данных
Трек  7  нет в базе данных
Трек  8  нет в базе данных
Трек  9  нет в базе данных
Трек 10  нет в базе данных
Трек 11  нет в базе данных
Трек 12  нет в базе данных
Трек 13  нет в базе данных
Трек 14  нет в базе данных
Трек 15  нет в базе данных
Трек 16  нет в базе данных
Ни одного трека нет в базе AccurateRip
Конец отчёта
Код:
Started at: воскресенье, 11. 10. 2009. - 23:12.46
1 file found
1 -===- D:\Documents and Settings\Rodexx\Рабочий стол\Roppongi Inc. Project\Roppongi Inc. Project  - Hard Times...No Future.ape
  Extracted successfully
  Conclusion: this track is CDDA with probability 100%
  Tempfile successfully deleted.
Finished at: воскресенье, 11. 10. 2009. - 23:21.49 (operation time: 0:09.03)
Roppongi Inc. Project (R.I.P.) был создан в 2002 году в Москве, но большее признание получил за пределами Российской Федерации. Треки R.I.P. неоднократно звучали в эфирах альтернативных радиостанций Европы и США, кроме того, весной 2007 года R.I.P. принял участие в электро-индустриальном сборнике Vol.IV немецкого лэйбла VAWS с композицией Nothing.
Стиль Roppongi Inc. Project сложно обозначить, точно также, как сложно найти сравнения с какими-либо существующими проектами: звучание R.I.P. очень индивидуально и узнаваемо, и, кроме того, стилистически разнообразно. На новом альбоме амплитуда стилей колеблется от tbm, ebm, dark electro до synth/future, psy, trance и techno.
В Hard Times… No Future? нашлось место и депрессии, и тоске, и страху (этому способствуют множество сэмплов из различных хоррор-фильмов), и взрывной танцевальности, которой стало несоизмеримо больше по сравнению с предыдущими релизами проекта. В работе над альбомом принял участие DJ Фомин, внесший существенную лепту в звучание многих композиций и выполнивший профессиональный мастеринг релиза. В качестве бонус-треков на альбоме представлены: ремикс от французского electro-punk проекта SEVERIN24, а также вокальный ремикс от известной московской формации DBS.
Правила, инструкции, FAQ!!!
Торрент  Добавлен [26 июн 2020, 20:39] Скачать торрент Магнет ссылка
Скачать торрент
[ Размер 18.05 КБ / Просмотров 8 ]

Статус
Проверен 
 
Размер  441.44 МБ
Приватный: Нет (DHT включён)
.torrent скачан  0
 


     Отправить личное сообщение
   
Страница 1 из 1
Показать сообщения за:  Поле сортировки  
Начать новую тему Ответить на тему


Сейчас этот форум просматривают: нет зарегистрированных пользователей и гости: 0


Вы не можете начинать темы
Вы не можете отвечать на сообщения
Вы не можете редактировать свои сообщения
Вы не можете удалять свои сообщения
Вы не можете добавлять вложения

Перейти:  
cron