Начать новую тему Ответить на тему
Статистика раздачи
Размер: 464.65 МБ | Добавлен: 26 июн 2020, 20:24 | Скачали: 0
Сидеров: 0  [0 байт/сек]    Личеров: 0  [0 байт/сек]
Пред. тема | След. тема 

Автор
Сообщение

СообщениеДобавлено: 26 июн 2020, 20:24 

Ответить с цитатой 

Snog - The Last Days Of Rome
Жанр: Electro, Experimental
Год выпуска диска: 2007
Производитель диска: США
Аудио кодек: FLAC
Тип рипа: image+.cue
Битрейт аудио: lossless
Продолжительность: 75:03.29
Трэклист:
01. One Grain Of Sand
02. The Last Days Of Rome
03. Lost At Sea
04. It's All Lies
05. City
06. Vaguely Melancholic
07. Whateverman
08. Christmas Everyday
09. I Do Know Now
10. The Billionaires Bullshit Machine
11. Go To Sleep (Little Australia)
12. One Speck Of Dust
13. Extra Track
14. The Last Days Of Rome (Sir Real Remix)
15. Further Extra Tracks
16. One Grain Of Sand (Acoustic)
17. The Day The Towers Fell
18. The Sickness (Featuring Hecq)
19. The Happy Song
20. The Fires
Доп. информация:
Label: Metropolis
Catalog#: MET 513
Format: CD, Album
Country: US
Released: Oct 2007
Genre: Electronic
Style: Electro, Experimental
Credits:
Artwork By [Design] - Richard Grant
Artwork By [Paintings] - Chris Woods
Mastered By - Simon Polinski
Mixed By - Adam Fischer , Chris Arkley-Smith , David Thrussell
Performer - Adam Fischer , Chris Arkley-Smith , Chris Green (9) , David Beattie , David Thrussell , John L. Kilbey* , Josephine Petrina , Royce Doherty (2)
Written-By - Adam Fischer (tracks: 1 to 10) , Chris Arkley-Smith (tracks: 1 to 10) , David Beattie (tracks: 2, 4, 5) , David Thrussell , John L. Kilbey* (tracks: 6, 8, 9 ,12)
Notes: North American version of the album. Tracks 16-20 are different from both the Australian & European versions. Tracks 13 & 15 are both 2 minutes of silence.
Recorded at The Thorn Ranch, Oak Manor & Koepelkerk Renswoude.
Snog / The Last Days Of Rome
Дисковод: PIONEER DVD-RW DVR-111D Adapter: 0 ID: 0
Режим чтения : Достоверность
Использование точного потока : Да
Отключение кэша аудио : Да
Использование указателей C2 : Нет
Коррекция смещения при чтении : 48
Способность читать области Lead-in и Lead-out : Нет
Заполнение пропущенных сэмплов тишиной : Да
Удаление блоков с тишиной в начале и конце : Нет
При вычислениях CRC использовались нулевые сэмплы : Да
Интерфейс : Встроенный Win32-интерфейс для Win NT/2000
Выходной формат : Пользовательский кодировщик
Выбранный битрейт : 1024 kBit/s
Качество : Высокий
Добавление ID3-тэга : Нет
Утилита сжатия : C:\Program Files\Exact Audio Copy\FLAC\FLAC.EXE
Дополнительные параметры : -8 -V -T "ARTIST=%a" -T "TITLE=%t" -T "ALBUM=%g" -T "DATE=%y" -T "TRACKNUMBER=%n" -T "GENRE=%m" -T "COMMENT=%e" %s -o %d
TOC извлечённого CD
Трек | Старт | Длительность | Начальный сектор | Конечный сектор
---------------------------------------------------------------------
1 | 0:00.00 | 3:28.15 | 0 | 15614
2 | 3:28.15 | 3:57.56 | 15615 | 33445
3 | 7:25.71 | 3:18.16 | 33446 | 48311
4 | 10:44.12 | 3:39.31 | 48312 | 64767
5 | 14:23.43 | 5:02.62 | 64768 | 87479
6 | 19:26.30 | 5:08.09 | 87480 | 110588
7 | 24:34.39 | 5:03.18 | 110589 | 133331
8 | 29:37.57 | 4:58.74 | 133332 | 155755
9 | 34:36.56 | 3:55.15 | 155756 | 173395
10 | 38:31.71 | 4:41.71 | 173396 | 194541
11 | 43:13.67 | 5:58.06 | 194542 | 221397
12 | 49:11.73 | 1:57.41 | 221398 | 230213
13 | 51:09.39 | 2:02.42 | 230214 | 239405
14 | 53:12.06 | 5:49.11 | 239406 | 265591
15 | 59:01.17 | 0:06.00 | 265592 | 266041
16 | 59:07.17 | 3:14.14 | 266042 | 280605
17 | 62:21.31 | 4:21.06 | 280606 | 300186
18 | 66:42.37 | 4:37.10 | 300187 | 320971
19 | 71:19.47 | 3:43.57 | 320972 | 337753
20 | 75:03.29 | 2:18.69 | 337754 | 348172
Характеристики диапазона извлечения и сообщения об ошибках
Выбранный диапазон
Имя файла D:\123\NEW UNREALESED\Snog - The Last Days Of Rome [2007]\Snog - The Last Days Of Rome.wav
Пиковый уровень 100.0 %
Качество диапазона 100.0 %
CRC теста 5E90C322
CRC копии 5E90C322
Копирование... OK
Ошибок не произошло
Конец отчёта
AUDIOCHECKER v2.0 beta (build 457) - by Dester - opdester@freemail.hu
~~~~~~~~~~~~~~~~~~~~~~~~~~~~~~~~~~
-=== DO NOT EDIT THIS FILE! ===-
Path: ...\Snog - The Last Days Of Rome [2007]
1 -=- Snog - The Last Days Of Rome.flac -=- CDDA (100%)
113583636
Правила, инструкции, FAQ!!!
Торрент  Добавлен [26 июн 2020, 20:24] Скачать торрент Магнет ссылка
Скачать торрент
[ Размер 18.85 КБ / Просмотров 3 ]

Статус
Проверен 
 
Размер  464.65 МБ
Приватный: Нет (DHT включён)
.torrent скачан  0
 


     Отправить личное сообщение
   
Страница 1 из 1
Показать сообщения за:  Поле сортировки  
Начать новую тему Ответить на тему


Сейчас этот форум просматривают: нет зарегистрированных пользователей и гости: 0


Вы не можете начинать темы
Вы не можете отвечать на сообщения
Вы не можете редактировать свои сообщения
Вы не можете удалять свои сообщения
Вы не можете добавлять вложения

Перейти:  
cron