Начать новую тему Ответить на тему
Статистика раздачи
Размер: 498.68 МБ | Добавлен: 26 июн 2020, 17:25 | Скачали: 0
Сидеров: 1  [0 байт/сек]    Личеров: 0  [0 байт/сек]
Пред. тема | След. тема 

Автор
Сообщение

СообщениеДобавлено: 26 июн 2020, 17:25 

Ответить с цитатой 

Sara Noxx & Mark Benecke - Jeanny
Жанр: Electro, Electronica, Gothic
Носитель: CDM
Год выпуска диска: 2016
Издатель (лейбл): Prussia Records
Каталожный номер: PRSA4008
Страна-производитель диска: Germany
Аудиокодек: FLAC (*.flac)
Тип рипа: tracks+.cue
Битрейт аудио: lossless
Продолжительность: 68:30
Источник (релизер): Собственный диск
Наличие сканов в содержимом раздачи: нет

Треклист:
01-Jeanny (SingleEDIT) (05:30)
02-Jeanny (Synthesis) (05:28)
03-Jeanny (Rob Dust Remix) (05:20)
04-Jeanny (POS2 Remix) (06:20)
05-Jeanny (Red Eyes Mix By Requiem4fm) (05:41)
06-Jeanny (-La Magra- Remake) (05:44)
07-Jeanny (Sleepwalk Remix) (05:56)
08-Jeanny (Aengeldust Remix) (04:48)
09-Jeanny (Criminal-Mixx By Form Follows Function) (04:37)
10-Jeanny (Centhron Mix) (04:21)
11-Jeanny (Smooth Operator Mixx By German Art) (05:02)
12-Jeanny (Exaltationmix By Metallspurhunde) (05:26)
13-Jeanny (Exponentia Remix) (04:23)
Код:
Exact Audio Copy V1.1 from 23. June 2015
EAC extraction logfile from 24. June 2016, 19:01
Sara Noxx & Mark Benecke / Jeanny
Used drive  : HL-DT-STDVDRAM GH24NSC0   Adapter: 2  ID: 0
Read mode               : Secure
Utilize accurate stream : Yes
Defeat audio cache      : Yes
Make use of C2 pointers : No
Read offset correction                      : 6
Overread into Lead-In and Lead-Out          : No
Fill up missing offset samples with silence : Yes
Delete leading and trailing silent blocks   : No
Null samples used in CRC calculations       : Yes
Used interface                              : Native Win32 interface for Win NT & 2000
Gap handling                                : Appended to previous track
Used output format              : User Defined Encoder
Selected bitrate                : 128 kBit/s
Quality                         : High
Add ID3 tag                     : No
Command line compressor         : C:\Program Files (x86)\Exact Audio Copy\Flac\flac.exe
Additional command line options : -8 -V -T "ARTIST=%artist%" -T "TITLE=%title%" -T "ALBUM=%albumtitle%" -T "DATE=%year%" -T "TRACKNUMBER=%tracknr%" -T "GENRE=%genre%" -T "PERFORMER=%albuminterpret%" -T "COMPOSER=%composer%" %haslyrics%--tag-from-file=LYRICS="%lyricsfile%"%haslyrics% -T "ALBUMARTIST=%albumartist%" -T "DISCNUMBER=%cdnumber%" -T "TOTALDISCS=%totalcds%" -T "TOTALTRACKS=%numtracks%" -T "COMMENT=%comment%" %source% -o %dest%
TOC of the extracted CD
     Track |   Start  |  Length  | Start sector | End sector
    ---------------------------------------------------------
        1  |  0:00.00 |  5:29.50 |         0    |    24724
        2  |  5:29.50 |  5:27.32 |     24725    |    49281
        3  | 10:57.07 |  5:20.06 |     49282    |    73287
        4  | 16:17.13 |  6:19.18 |     73288    |   101730
        5  | 22:36.31 |  5:40.25 |    101731    |   127255
        6  | 28:16.56 |  5:43.36 |    127256    |   153016
        7  | 34:00.17 |  5:55.73 |    153017    |   179714
        8  | 39:56.15 |  4:47.62 |    179715    |   201301
        9  | 44:44.02 |  4:36.55 |    201302    |   222056
       10  | 49:20.57 |  4:20.52 |    222057    |   241608
       11  | 53:41.34 |  5:01.41 |    241609    |   264224
       12  | 58:43.00 |  5:25.34 |    264225    |   288633
       13  | 64:08.34 |  4:22.19 |    288634    |   308302
Track  1
     Filename M:\01 - Jeanny (SingleEDIT).wav
     Pre-gap length  0:00:02.00
     Peak level 98.0 %
     Extraction speed 4.2 X
     Track quality 99.9 %
     Test CRC C8365EE1
     Copy CRC C8365EE1
     Track not present in AccurateRip database
     Copy OK
Track  2
     Filename M:\02 - Jeanny (Synthesis).wav
     Pre-gap length  0:00:02.00
     Peak level 98.0 %
     Extraction speed 5.2 X
     Track quality 100.0 %
     Test CRC C7C53C8B
     Copy CRC C7C53C8B
     Track not present in AccurateRip database
     Copy OK
Track  3
     Filename M:\03 - Jeanny (Rob Dust Remix).wav
     Pre-gap length  0:00:02.00
     Peak level 98.0 %
     Extraction speed 5.8 X
     Track quality 100.0 %
     Test CRC 4C1384E9
     Copy CRC 4C1384E9
     Track not present in AccurateRip database
     Copy OK
Track  4
     Filename M:\04 - Jeanny (POS2 Remix).wav
     Pre-gap length  0:00:02.00
     Peak level 98.0 %
     Extraction speed 6.4 X
     Track quality 100.0 %
     Test CRC 3AB22A57
     Copy CRC 3AB22A57
     Track not present in AccurateRip database
     Copy OK
Track  5
     Filename M:\05 - Jeanny (Red Eyes Mix by Requiem4fm).wav
     Pre-gap length  0:00:02.00
     Peak level 98.0 %
     Extraction speed 6.7 X
     Track quality 100.0 %
     Test CRC 6FAC8EEA
     Copy CRC 6FAC8EEA
     Track not present in AccurateRip database
     Copy OK
Track  6
     Filename M:\06 - Jeanny (-La Magra- Remake).wav
     Pre-gap length  0:00:02.00
     Peak level 98.0 %
     Extraction speed 7.2 X
     Track quality 100.0 %
     Test CRC AFC73CB3
     Copy CRC AFC73CB3
     Track not present in AccurateRip database
     Copy OK
Track  7
     Filename M:\07 - Jeanny (Sleepwalk Remix).wav
     Pre-gap length  0:00:02.00
     Peak level 98.0 %
     Extraction speed 7.3 X
     Track quality 100.0 %
     Test CRC 2AF412D3
     Copy CRC 2AF412D3
     Track not present in AccurateRip database
     Copy OK
Track  8
     Filename M:\08 - Jeanny (Aengeldust Remix).wav
     Pre-gap length  0:00:02.00
     Peak level 98.0 %
     Extraction speed 6.8 X
     Track quality 99.9 %
     Test CRC EAE1818E
     Copy CRC EAE1818E
     Track not present in AccurateRip database
     Copy OK
Track  9
     Filename M:\09 - Jeanny (Criminal-Mixx by Form Follows Function).wav
     Pre-gap length  0:00:02.00
     Peak level 98.0 %
     Extraction speed 8.1 X
     Track quality 100.0 %
     Test CRC B2A08866
     Copy CRC B2A08866
     Track not present in AccurateRip database
     Copy OK
Track 10
     Filename M:\10 - Jeanny (Centhron Mix).wav
     Pre-gap length  0:00:02.00
     Peak level 98.0 %
     Extraction speed 8.2 X
     Track quality 100.0 %
     Test CRC 6CDF2737
     Copy CRC 6CDF2737
     Track not present in AccurateRip database
     Copy OK
Track 11
     Filename M:\11 - Jeanny (Smooth Operator Mixx by German Art).wav
     Pre-gap length  0:00:02.00
     Peak level 98.0 %
     Extraction speed 8.5 X
     Track quality 100.0 %
     Test CRC 0C765114
     Copy CRC 0C765114
     Track not present in AccurateRip database
     Copy OK
Track 12
     Filename M:\12 - Jeanny (Exaltationmix by Metallspьrhunde).wav
     Pre-gap length  0:00:02.00
     Peak level 98.0 %
     Extraction speed 8.7 X
     Track quality 100.0 %
     Test CRC 4688DF91
     Copy CRC 4688DF91
     Track not present in AccurateRip database
     Copy OK
Track 13
     Filename M:\13 - Jeanny (Exponentia Remix).wav
     Pre-gap length  0:00:02.00
     Peak level 98.0 %
     Extraction speed 7.9 X
     Track quality 99.9 %
     Test CRC 12FDF964
     Copy CRC 12FDF964
     Track not present in AccurateRip database
     Copy OK
None of the tracks are present in the AccurateRip database
No errors occurred
End of status report
---- CUETools DB Plugin V2.1.6
[CTDB TOCID: 6TxyJ2Z.T7n5NLxzV5uyw06W7gw-] found
Submit result: 6TxyJ2Z.T7n5NLxzV5uyw06W7gw- has been confirmed
Track | CTDB Status
  1   | (1/1) Accurately ripped
  2   | (1/1) Accurately ripped
  3   | (1/1) Accurately ripped
  4   | (1/1) Accurately ripped
  5   | (1/1) Accurately ripped
  6   | (1/1) Accurately ripped
  7   | (1/1) Accurately ripped
  8   | (1/1) Accurately ripped
  9   | (1/1) Accurately ripped
 10   | (1/1) Accurately ripped
 11   | (1/1) Accurately ripped
 12   | (1/1) Accurately ripped
 13   | (1/1) Accurately ripped
==== Log checksum D1EEAA57110148F8CA93665BF8AD37E0E452B6A8A3E6F52BC6DE7A832E51576F ====
Код:
REM GENRE Darkwave
REM DATE 2016
REM DISCID CF100E0D
REM COMMENT "ExactAudioCopy v1.1"
CATALOG 4260383170127
PERFORMER "Sara Noxx & Mark Benecke"
TITLE "Jeanny"
FILE "01 - Jeanny (SingleEDIT).wav" WAVE
  TRACK 01 AUDIO
    TITLE "Jeanny (SingleEDIT)"
    PERFORMER "Sara Noxx & Mark Benecke"
    ISRC DEHE21600001
    INDEX 01 00:00:00
  TRACK 02 AUDIO
    TITLE "Jeanny (Synthesis)"
    PERFORMER "Sara Noxx & Mark Benecke"
    ISRC DEHE21600002
    INDEX 00 05:27:50
FILE "02 - Jeanny (Synthesis).wav" WAVE
    INDEX 01 00:00:00
  TRACK 03 AUDIO
    TITLE "Jeanny (Rob Dust Remix)"
    PERFORMER "Sara Noxx & Mark Benecke"
    ISRC DEHE21600003
    INDEX 00 05:25:32
FILE "03 - Jeanny (Rob Dust Remix).wav" WAVE
    INDEX 01 00:00:00
  TRACK 04 AUDIO
    TITLE "Jeanny (POS2 Remix)"
    PERFORMER "Sara Noxx & Mark Benecke"
    ISRC DEHE21600004
    INDEX 00 05:18:06
FILE "04 - Jeanny (POS2 Remix).wav" WAVE
    INDEX 01 00:00:00
  TRACK 05 AUDIO
    TITLE "Jeanny (Red Eyes Mix by Requiem4fm)"
    PERFORMER "Sara Noxx & Mark Benecke"
    ISRC DEHE21600005
    INDEX 00 06:17:18
FILE "05 - Jeanny (Red Eyes Mix by Requiem4fm).wav" WAVE
    INDEX 01 00:00:00
  TRACK 06 AUDIO
    TITLE "Jeanny (-La Magra- Remake)"
    PERFORMER "Sara Noxx & Mark Benecke"
    ISRC DEHE21600006
    INDEX 00 05:38:25
FILE "06 - Jeanny (-La Magra- Remake).wav" WAVE
    INDEX 01 00:00:00
  TRACK 07 AUDIO
    TITLE "Jeanny (Sleepwalk Remix)"
    PERFORMER "Sara Noxx & Mark Benecke"
    ISRC DEHE21600007
    INDEX 00 05:41:36
FILE "07 - Jeanny (Sleepwalk Remix).wav" WAVE
    INDEX 01 00:00:00
  TRACK 08 AUDIO
    TITLE "Jeanny (Aengeldust Remix)"
    PERFORMER "Sara Noxx & Mark Benecke"
    ISRC DEHE21600008
    INDEX 00 05:53:73
FILE "08 - Jeanny (Aengeldust Remix).wav" WAVE
    INDEX 01 00:00:00
  TRACK 09 AUDIO
    TITLE "Jeanny (Criminal-Mixx by Form Follows Function)"
    PERFORMER "Sara Noxx & Mark Benecke"
    ISRC DEHE21600009
    INDEX 00 04:45:62
FILE "09 - Jeanny (Criminal-Mixx by Form Follows Function).wav" WAVE
    INDEX 01 00:00:00
  TRACK 10 AUDIO
    TITLE "Jeanny (Centhron Mix)"
    PERFORMER "Sara Noxx & Mark Benecke"
    ISRC DEHE21600010
    INDEX 00 04:34:55
FILE "10 - Jeanny (Centhron Mix).wav" WAVE
    INDEX 01 00:00:00
  TRACK 11 AUDIO
    TITLE "Jeanny (Smooth Operator Mixx by German Art)"
    PERFORMER "Sara Noxx & Mark Benecke"
    ISRC DEHE21600011
    INDEX 00 04:18:52
FILE "11 - Jeanny (Smooth Operator Mixx by German Art).wav" WAVE
    INDEX 01 00:00:00
  TRACK 12 AUDIO
    TITLE "Jeanny (Exaltationmix by Metallspьrhunde)"
    PERFORMER "Sara Noxx & Mark Benecke"
    ISRC DEHE21600012
    INDEX 00 04:59:41
FILE "12 - Jeanny (Exaltationmix by Metallspьrhunde).wav" WAVE
    INDEX 01 00:00:00
  TRACK 13 AUDIO
    TITLE "Jeanny (Exponentia Remix)"
    PERFORMER "Sara Noxx & Mark Benecke"
    ISRC DEHE21600013
    INDEX 00 05:23:34
FILE "13 - Jeanny (Exponentia Remix).wav" WAVE
    INDEX 01 00:00:00
Правила, инструкции, FAQ!!!
Торрент  Добавлен [26 июн 2020, 17:25] Скачать торрент Магнет ссылка
Скачать торрент
[ Размер 21.03 КБ / Просмотров 14 ]

Статус
Проверен 
 
Размер  498.68 МБ
Приватный: Нет (DHT включён)
.torrent скачан  0
 


     Отправить личное сообщение
   
Страница 1 из 1
Показать сообщения за:  Поле сортировки  
Начать новую тему Ответить на тему


Сейчас этот форум просматривают: нет зарегистрированных пользователей и гости: 0


Вы не можете начинать темы
Вы не можете отвечать на сообщения
Вы не можете редактировать свои сообщения
Вы не можете удалять свои сообщения
Вы не можете добавлять вложения

Перейти:  
cron