Начать новую тему Ответить на тему
Статистика раздачи
Размер: 336.46 МБ | Добавлен: 26 июн 2020, 21:00 | Скачали: 0
Сидеров: 0  [0 байт/сек]    Личеров: 0  [0 байт/сек]
Пред. тема | След. тема 

Автор
Сообщение

СообщениеДобавлено: 26 июн 2020, 21:00 

Ответить с цитатой 

Patenbrigade: Wolff Feat. André Hartung - Die Brücke
Жанр: Electro, Electronica, Ambient, Chillout
Носитель: CD
Год издания: 2015
Издатель (лейбл): Zweieck Recordings
Каталожный номер: ZWE027
Страна-производитель диска: Germany
Аудиокодек: FLAC (*.flac)
Тип рипа: image+.cue
Битрейт аудио: lossless
Продолжительность: 51:17
Источник (релизер): Собственный диск
Наличие сканов в содержимом раздачи: нет
[url=http://www.discogs.com/Patenbrigade-Wolff-Feat-André-Hartung-Die-Brücke/release/7033638][/url]
Трэклист:
1. Beringmeer (4:47)
2. Im Eis (5:54)
3. Die Brücke (4:16)
4. Treibgut (4:55)
5. Sensorstörung (4:21)
6. Beringmeer (Tiefgang Reload Mix by Wattnoi) (6:30)
7. Die Brücke (Max. Tragkraft Remix by TiNNEF) (8:05)
8. Im Eis (Schmelzpunkt Remix by André Hartung) (5:32)
9. Beringmeer (Rypzylon & WeaselSon's Echodub Rework) (6:48)
Код:
Exact Audio Copy V1.1 from 23. June 2015
Отчёт EAC об извлечении, выполненном 8. июля 2015, 20:51
Patenbrigade: Wolff Feat. André Hartung / Die Brücke
Дисковод: HL-DT-STDVDRAM GH24NSC0   Adapter: 2  ID: 0
Режим чтения                 : Достоверность
Использование точного потока : Да
Отключение кэша аудио        : Да
Использование указателей C2  : Нет
Коррекция смещения при чтении                     : 6
Способность читать области Lead-in и Lead-out     : Нет
Заполнение пропущенных сэмплов тишиной            : Да
Удаление блоков с тишиной в начале и конце        : Нет
При вычислениях CRC использовались нулевые сэмплы : Да
Интерфейс                                         : Встроенный Win32-интерфейс для Win NT/2000
Выходной формат          : Пользовательский кодировщик
Выбранный битрейт        : 128 kBit/s
Качество                 : Высокий
Добавление ID3-тега      : Нет
Утилита сжатия           : C:\Program Files (x86)\Exact Audio Copy\Flac\flac.exe
Дополнительные параметры : -V -8 -T "Date=%year%" -T "Genre=%genre%" %source%
TOC извлечённого CD
     Трек |   Старт  | Длительность | Начальный сектор | Конечный сектор
    ---------------------------------------------------------------------
       1  |  0:00.00 |    4:48.39   |           0      |      21638
       2  |  4:48.39 |    5:54.71   |       21639      |      48259
       3  | 10:43.35 |    4:16.17   |       48260      |      67476
       4  | 14:59.52 |    4:55.61   |       67477      |      89662
       5  | 19:55.38 |    4:21.36   |       89663      |     109273
       6  | 24:16.74 |    6:32.24   |      109274      |     138697
       7  | 30:49.23 |    8:05.64   |      138698      |     175136
       8  | 38:55.12 |    5:33.61   |      175137      |     200172
       9  | 44:28.73 |    6:48.34   |      200173      |     230806
Характеристики диапазона извлечения и сообщения об ошибках
Выбранный диапазон
     Имя файла M:\Patenbrigade Wolff Feat. Andre Hartung - Die Brucke.wav
     Пиковый уровень 100.0 %
     Скорость извлечения 6.8 X
     Качество диапазона 100.0 %
     CRC теста 5A404315
     CRC копии 5A404315
     Копирование... OK
Ошибок не произошло
AccurateRip: сводка
Трек  1  отсутствует в базе данных
Трек  2  отсутствует в базе данных
Трек  3  отсутствует в базе данных
Трек  4  отсутствует в базе данных
Трек  5  отсутствует в базе данных
Трек  6  отсутствует в базе данных
Трек  7  отсутствует в базе данных
Трек  8  отсутствует в базе данных
Трек  9  отсутствует в базе данных
Ни одного трека нет в базе AccurateRip
Конец отчёта
---- CUETools DB Plugin V2.1.6
[CTDB TOCID: _wCT40PSFqdzNQCwoDvwZTOE7.U-] database access error: Невозможно разрешить удаленное имя: 'db.cuetools.net'
==== Контрольная сумма отчёта BEE979A620181EE9302B27BF26936CBB24FCD82537BC17CA6DDE2EFCD6C6A0C0 ====
Код:
REM GENRE Electronic
REM DATE 2015
REM DISCID 770C0509
REM COMMENT "ExactAudioCopy v1.1"
PERFORMER "Patenbrigade: Wolff Feat. Andre Hartung"
TITLE "Die Brucke"
FILE "Patenbrigade Wolff Feat. Andre Hartung - Die Brucke.flac" WAVE
  TRACK 01 AUDIO
    TITLE "Beringmeer "
    PERFORMER "Patenbrigade: Wolff Feat. Andre Hartung"
    INDEX 01 00:00:00
  TRACK 02 AUDIO
    TITLE "Im Eis"
    PERFORMER "Patenbrigade: Wolff Feat. Andre Hartung"
    INDEX 00 04:47:55
    INDEX 01 04:48:39
  TRACK 03 AUDIO
    TITLE "Die Brucke"
    PERFORMER "Patenbrigade: Wolff Feat. Andre Hartung"
    INDEX 00 10:42:48
    INDEX 01 10:43:35
  TRACK 04 AUDIO
    TITLE "Treibgut"
    PERFORMER "Patenbrigade: Wolff Feat. Andre Hartung"
    INDEX 00 14:59:39
    INDEX 01 14:59:52
  TRACK 05 AUDIO
    TITLE "Sensorstorung"
    PERFORMER "Patenbrigade: Wolff Feat. Andre Hartung"
    INDEX 00 19:54:53
    INDEX 01 19:55:38
  TRACK 06 AUDIO
    TITLE "Beringmeer (Tiefgang Reload Mix by Wattnoi)"
    PERFORMER "Patenbrigade: Wolff Feat. Andre Hartung"
    INDEX 00 24:16:40
    INDEX 01 24:16:74
  TRACK 07 AUDIO
    TITLE "Die Brucke (Max. Tragkraft Remix By Tinnef)"
    PERFORMER "Patenbrigade: Wolff Feat. Andre Hartung"
    INDEX 00 30:47:39
    INDEX 01 30:49:23
  TRACK 08 AUDIO
    TITLE "Im Eis (Schmelzpunkt Remix By Andre Hartung)"
    PERFORMER "Patenbrigade: Wolff Feat. Andre Hartung"
    INDEX 00 38:55:01
    INDEX 01 38:55:12
  TRACK 09 AUDIO
    TITLE "Beringmeer (Rypzylon & WeaselSon's Echodub Rework)"
    PERFORMER "Patenbrigade: Wolff Feat. Andre Hartung"
    INDEX 00 44:27:44
    INDEX 01 44:28:73
Правила, инструкции, FAQ!!!
Торрент  Добавлен [26 июн 2020, 21:00] Скачать торрент Магнет ссылка
Скачать торрент
[ Размер 13.85 КБ / Просмотров 4 ]

Статус
Проверен 
 
Размер  336.46 МБ
Приватный: Нет (DHT включён)
.torrent скачан  0
 


     Отправить личное сообщение
   
Страница 1 из 1
Показать сообщения за:  Поле сортировки  
Начать новую тему Ответить на тему


Сейчас этот форум просматривают: нет зарегистрированных пользователей и гости: 0


Вы не можете начинать темы
Вы не можете отвечать на сообщения
Вы не можете редактировать свои сообщения
Вы не можете удалять свои сообщения
Вы не можете добавлять вложения

Перейти:  
cron