Начать новую тему Ответить на тему
Статистика раздачи
Размер: 433.91 МБ | Добавлен: 26 июн 2020, 17:44 | Скачали: 0
Сидеров: 0  [0 байт/сек]    Личеров: 0  [0 байт/сек]
Пред. тема | След. тема 

Автор
Сообщение

СообщениеДобавлено: 26 июн 2020, 17:44 

Ответить с цитатой 

Patenbrigade: Wolff / Verbundstoff
Жанр: Electro, EBM, Synth-pop, Ambient
Страна-производитель диска: Germany
Год издания диска: 2011
Издатель (лейбл): Zweieck Recordings
Номер по каталогу: ZWE014
Страна: Germany
Аудио кодек: FLAC (*.flac)
Тип рипа: image+.cue
Битрейт аудио: lossless
Продолжительность: 1:02:22.58
Источник (релизер): CD из личной коллекции.
Наличие сканов в содержимом раздачи: да
Треклист:
01. Voyage (Desireless Club Mix Part 1) 3:32
02. Voyage (Desireless Club Mix Part 2) 4:29
03. I.M. (Ohne Benecke) 4:55
04. Neverland (Rypzylon & Weaselson Remix) 4:49
05. Das Kraftfeld (Hartung & Schleinitz Remix) 4:44
06. Unfall (Ohne Folgen) 4:24
07. Arbeit Am Rohr 4:27
08. Popmusik Für Rohrleger (GoJA Moon ROCKAH Remix) 4:04
09. Blitzschlag (Ohne Anklage) 2:31
10. Heimweg 3:12
11. Fehler 404 (Akustik Version) 4:01
12. Voyage (Olaf Wollschläger Mix) 4:16
13. Fragrance (Feat. SaraLux) 4:48
14. Nachtschicht 3:47
15. Schlusslicht (Zeit Zurückgedreht) 4:19
Discogs
Код:
Exact Audio Copy V0.99 prebeta 5 from 4. May 2009
Отчёт EAC об извлечении, выполненном 19. февраля 2011, 17:53
Patenbrigade Wolff / Verbundstoff
Дисковод: TSSTcorpCDDVDW TS-L632H   Adapter: 0  ID: 0
Режим чтения                 : Достоверность
Использование точного потока : Да
Отключение кэша аудио        : Да
Использование указателей C2  : Нет
Коррекция смещения при чтении                     : 6
Способность читать области Lead-in и Lead-out     : Нет
Заполнение пропущенных сэмплов тишиной            : Да
Удаление блоков с тишиной в начале и конце        : Нет
При вычислениях CRC использовались нулевые сэмплы : Да
Интерфейс                                         : Встроенный Win32-интерфейс для Win NT/2000
Выходной формат          : Пользовательский кодировщик
Выбранный битрейт        : 1024 kBit/s
Качество                 : Высокий
Добавление ID3-тэга      : Нет
Утилита сжатия           : C:\Program Files\Exact Audio Copy\FLAC\FLAC.EXE
Дополнительные параметры : -6 -V -T "ARTIST=%a" -T "TITLE=%t" -T "ALBUM=%g" -T "DATE=%y" -T "TRACKNUMBER=%n" -T "GENRE=%m" -T "COMMENT=%e" %s -o %d
TOC извлечённого CD
     Трек |   Старт  | Длительность | Начальный сектор | Конечный сектор
    ---------------------------------------------------------------------
       1  |  0:00.00 |    3:32.44   |           0      |      15943
       2  |  3:32.44 |    4:29.02   |       15944      |      36120
       3  |  8:01.46 |    4:55.46   |       36121      |      58291
       4  | 12:57.17 |    4:49.45   |       58292      |      80011
       5  | 17:46.62 |    4:44.34   |       80012      |     101345
       6  | 22:31.21 |    4:23.74   |      101346      |     121144
       7  | 26:55.20 |    4:27.23   |      121145      |     141192
       8  | 31:22.43 |    4:04.09   |      141193      |     159501
       9  | 35:26.52 |    2:31.60   |      159502      |     170886
      10  | 37:58.37 |    3:12.23   |      170887      |     185309
      11  | 41:10.60 |    4:01.38   |      185310      |     203422
      12  | 45:12.23 |    4:16.36   |      203423      |     222658
      13  | 49:28.59 |    4:47.60   |      222659      |     244243
      14  | 54:16.44 |    3:47.18   |      244244      |     261286
      15  | 58:03.62 |    4:18.71   |      261287      |     280707
Характеристики диапазона извлечения и сообщения об ошибках
Выбранный диапазон
     Имя файла C:\Users\Алексей\Desktop\iPOD\Patenbrigade Wolff - Verbundstoff.wav
     Пиковый уровень 95.5 %
     Качество диапазона 100.0 %
     CRC теста 4704BE59
     CRC копии 4704BE59
     Копирование... OK
Ошибок не произошло
AccurateRip: сводка
Трек  1  нет в базе данных
Трек  2  нет в базе данных
Трек  3  нет в базе данных
Трек  4  нет в базе данных
Трек  5  нет в базе данных
Трек  6  нет в базе данных
Трек  7  нет в базе данных
Трек  8  нет в базе данных
Трек  9  нет в базе данных
Трек 10  нет в базе данных
Трек 11  нет в базе данных
Трек 12  нет в базе данных
Трек 13  нет в базе данных
Трек 14  нет в базе данных
Трек 15  нет в базе данных
Ни одного трека нет в базе AccurateRip
Конец отчёта
Код:
REM GENRE "Electro Synth-pop"
REM DATE 2011
REM DISCID DC0E9E0F
REM COMMENT "ExactAudioCopy v0.99pb5"
PERFORMER "Patenbrigade Wolff"
TITLE "Verbundstoff"
FILE "Patenbrigade Wolff - Verbundstoff.flac" WAVE
  TRACK 01 AUDIO
    TITLE "Voyage (Desireless Club Mix Part 1)"
    PERFORMER "Patenbrigade Wolff"
    INDEX 01 00:00:00
  TRACK 02 AUDIO
    TITLE "Voyage (Desireless Club Mix Part 2)"
    PERFORMER "Patenbrigade Wolff"
    INDEX 01 03:32:44
  TRACK 03 AUDIO
    TITLE "I.M. (Ohne Benecke)"
    PERFORMER "Patenbrigade Wolff"
    INDEX 01 08:01:46
  TRACK 04 AUDIO
    TITLE "Neverland (Rypzylon & Weaselson Remix)"
    PERFORMER "Patenbrigade Wolff"
    INDEX 01 12:57:17
  TRACK 05 AUDIO
    TITLE "Das Kraftfeld (Hartung & Schleinitz Remix)"
    PERFORMER "Patenbrigade Wolff"
    INDEX 01 17:46:62
  TRACK 06 AUDIO
    TITLE "Unfall (Ohne Folgen)"
    PERFORMER "Patenbrigade Wolff"
    INDEX 01 22:31:21
  TRACK 07 AUDIO
    TITLE "Arbeit Am Rohr"
    PERFORMER "Patenbrigade Wolff"
    INDEX 01 26:55:20
  TRACK 08 AUDIO
    TITLE "Popmusik Fur Rohrleger (GoJA Moon ROCKAH Remix)"
    PERFORMER "Patenbrigade Wolff"
    INDEX 01 31:22:43
  TRACK 09 AUDIO
    TITLE "Blitzschlag (Ohne Anklage)"
    PERFORMER "Patenbrigade Wolff"
    INDEX 01 35:26:52
  TRACK 10 AUDIO
    TITLE "Heimweg"
    PERFORMER "Patenbrigade Wolff"
    INDEX 01 37:58:37
  TRACK 11 AUDIO
    TITLE "Fehler 404 (Akustik Version)"
    PERFORMER "Patenbrigade Wolff"
    INDEX 01 41:10:60
  TRACK 12 AUDIO
    TITLE "Voyage (Olaf Wollschlager Mix)"
    PERFORMER "Patenbrigade Wolff"
    INDEX 01 45:12:23
  TRACK 13 AUDIO
    TITLE "Fragrance (Feat. SaraLux)"
    PERFORMER "Patenbrigade Wolff"
    INDEX 01 49:28:59
  TRACK 14 AUDIO
    TITLE "Nachtschicht"
    PERFORMER "Patenbrigade Wolff"
    INDEX 01 54:16:44
  TRACK 15 AUDIO
    TITLE "Schlusslicht (Zeit Zuruckgedreht)"
    PERFORMER "Patenbrigade Wolff"
    INDEX 01 58:03:62
Код:
[url=https://fastpic.ru/view/17/2011/0308/c52411b36ab1bf9e492f78b1e054881d.jpg.html][img]http://i17.fastpic.ru/thumb/2011/0308/1d/c52411b36ab1bf9e492f78b1e054881d.jpeg[/img][/url][url=https://fastpic.ru/view/17/2011/0308/871b462302f996abdbbb63c253d3170e.jpg.html][img]http://i17.fastpic.ru/thumb/2011/0308/0e/871b462302f996abdbbb63c253d3170e.jpeg[/img][/url][url=https://fastpic.ru/view/17/2011/0308/1472011c4e1a970406e1cc44c09a1950.jpg.html][img]http://i17.fastpic.ru/thumb/2011/0308/50/1472011c4e1a970406e1cc44c09a1950.jpeg[/img][/url][url=https://fastpic.ru/view/17/2011/0308/6e1c3744809e78b9797f1ad7408c6416.jpg.html][img]http://i17.fastpic.ru/thumb/2011/0308/16/6e1c3744809e78b9797f1ad7408c6416.jpeg[/img][/url]
Выражаю благодарность kergarn`у за HQ scans!
Правила, инструкции, FAQ!!!
Торрент  Добавлен [26 июн 2020, 17:44] Скачать торрент Магнет ссылка
Скачать торрент
[ Размер 18.21 КБ / Просмотров 13 ]

Статус
Проверен 
 
Размер  433.91 МБ
Приватный: Нет (DHT включён)
.torrent скачан  0
 


     Отправить личное сообщение
   
Страница 1 из 1
Показать сообщения за:  Поле сортировки  
Начать новую тему Ответить на тему


Сейчас этот форум просматривают: нет зарегистрированных пользователей и гости: 0


Вы не можете начинать темы
Вы не можете отвечать на сообщения
Вы не можете редактировать свои сообщения
Вы не можете удалять свои сообщения
Вы не можете добавлять вложения

Перейти:  
cron