Начать новую тему Ответить на тему
Статистика раздачи
Размер: 473.98 МБ | Добавлен: 26 июн 2020, 17:49 | Скачали: 0
Сидеров: 0  [0 байт/сек]    Личеров: 0  [0 байт/сек]
Пред. тема | След. тема 

Автор
Сообщение

СообщениеДобавлено: 26 июн 2020, 17:49 

Ответить с цитатой 

Nine Seconds - Nothing To Confess


Жанр: Electro | EBM
Носитель: CD
Год издания: 2014
Издатель (лейбл): Space Race Records
Номер по каталогу: SRRCD010
Страна исполнителя (группы): Germany
Аудиокодек: FLAC (*.flac)
Тип рипа: image+.cue
Битрейт аудио: lossless
Продолжительность: 01:00:15
Источник (релизер): termoflex
Наличие сканов: да
Треклист:
01. Attractive Lies [00:03:47]
02. Antistar Machinery [00:04:37]
03. Borderland [Second Attempt] [00:04:47]
04. Pompeii [00:04:49]
05. Waiting For The Last Kiss [00:04:08]
06. Malfunction 09 [00:02:18]
07. The Forgotten Man [00:04:14]
08. No Shut-Eye [Fight Back Mix] [00:04:38]
09. No Shuffle [00:03:52]
10. Planet On Fire [00:05:52]
11. Waiting For The Last Kiss [Nine Seconds vs Cryo][Club Mix] [00:05:49]
12. Attractive Lies [Nine Seconds vs Mind.In.A.Box] [00:05:48]
13. Antistar Machinery [Nine Seconds vs Leaether Strip] [00:05:17]


Код:
14:45 13.01.2015Exact Audio Copy V1.0 beta 3 from 29. August 2011
Отчёт EAC об извлечении, выполненном 21. декабря 2014, 7:55
Nine Seconds / Nothing To Confess
Дисковод: MATSHITADVD-RAM UJ8E2 S   Adapter: 0  ID: 0
Режим чтения                 : Достоверность
Использование точного потока : Да
Отключение кэша аудио        : Да
Использование указателей C2  : Нет
Коррекция смещения при чтении                     : 103
Способность читать области Lead-in и Lead-out     : Нет
Заполнение пропущенных сэмплов тишиной            : Да
Удаление блоков с тишиной в начале и конце        : Нет
При вычислениях CRC использовались нулевые сэмплы : Да
Интерфейс                                         : Встроенный Win32-интерфейс для Win NT/2000
Выходной формат          : Пользовательский кодировщик
Выбранный битрейт        : 1024 kBit/s
Качество                 : Высокий
Добавление ID3-тега      : Нет
Утилита сжатия           : C:\Program Files (x86)\Exact Audio Copy\Flac\flac.exe
Дополнительные параметры : -V -8 -T "Date=%year%" -T "Genre=%genre%" -T "Comment=ripped by termoflex" %source%
TOC извлечённого CD
     Трек |   Старт  | Длительность | Начальный сектор | Конечный сектор
    ---------------------------------------------------------------------
       1  |  0:00.00 |    3:48.41   |           0      |      17140
       2  |  3:48.41 |    4:37.61   |       17141      |      37976
       3  |  8:26.27 |    4:47.64   |       37977      |      59565
       4  | 13:14.16 |    4:50.45   |       59566      |      81360
       5  | 18:04.61 |    4:10.39   |       81361      |     100149
       6  | 22:15.25 |    2:18.57   |      100150      |     110556
       7  | 24:34.07 |    4:15.00   |      110557      |     129681
       8  | 28:49.07 |    4:40.05   |      129682      |     150686
       9  | 33:29.12 |    3:53.04   |      150687      |     168165
      10  | 37:22.16 |    5:54.53   |      168166      |     194768
      11  | 43:16.69 |    5:51.35   |      194769      |     221128
      12  | 49:08.29 |    5:48.69   |      221129      |     247297
      13  | 54:57.23 |    5:18.21   |      247298      |     271168
Характеристики диапазона извлечения и сообщения об ошибках
Выбранный диапазон
     Имя файла C:\Users\User\Music\Nine Seconds - Nothing To Confess.wav
     Пиковый уровень 97.7 %
     Скорость извлечения 2.7 X
     Качество диапазона 100.0 %
     CRC теста C32513FF
     CRC копии C32513FF
     Копирование... OK
Ошибок не произошло
AccurateRip: сводка
Трек  1  отсутствует в базе данных
Трек  2  отсутствует в базе данных
Трек  3  отсутствует в базе данных
Трек  4  отсутствует в базе данных
Трек  5  отсутствует в базе данных
Трек  6  отсутствует в базе данных
Трек  7  отсутствует в базе данных
Трек  8  отсутствует в базе данных
Трек  9  отсутствует в базе данных
Трек 10  отсутствует в базе данных
Трек 11  отсутствует в базе данных
Трек 12  отсутствует в базе данных
Трек 13  отсутствует в базе данных
Ни одного трека нет в базе AccurateRip
Конец отчёта
---- CUETools DB Plugin V2.1.4
[CTDB TOCID: CyGokIR9JtiXfSnhstQVroIZM.4-] disk not present in database
Submit result: CyGokIR9JtiXfSnhstQVroIZM.4- has been uploaded
==== Контрольная сумма отчёта 168ED68F82DA19C5DDF0D22B2D3166B658AFC668E93F798472159E0F8739CB2E ====
Код:
REM GENRE Electro
REM DATE 2014
REM DISCID B40E1F0D
REM COMMENT "ExactAudioCopy v1.0b3"
PERFORMER "Nine Seconds"
TITLE "Nothing To Confess"
FILE "Nine Seconds - Nothing To Confess.flac" WAVE
  TRACK 01 AUDIO
    TITLE "Attractive Lies"
    PERFORMER "Nine Seconds"
    ISRC ITCD61400183
    INDEX 01 00:00:00
  TRACK 02 AUDIO
    TITLE "Antistar Machinery"
    PERFORMER "Nine Seconds"
    ISRC ITCD61400184
    INDEX 00 03:47:66
    INDEX 01 03:48:41
  TRACK 03 AUDIO
    TITLE "Borderland [Second Attempt]"
    PERFORMER "Nine Seconds"
    ISRC ITCD61400185
    INDEX 00 08:25:52
    INDEX 01 08:26:27
  TRACK 04 AUDIO
    TITLE "Pompeii"
    PERFORMER "Nine Seconds"
    ISRC ITCD61400186
    INDEX 00 13:13:41
    INDEX 01 13:14:16
  TRACK 05 AUDIO
    TITLE "Waiting For The Last Kiss"
    PERFORMER "Nine Seconds"
    ISRC ITCD61400187
    INDEX 00 18:04:11
    INDEX 01 18:04:61
  TRACK 06 AUDIO
    TITLE "Malfunction 09"
    PERFORMER "Nine Seconds"
    ISRC ITCD61400188
    INDEX 00 22:13:25
    INDEX 01 22:15:25
  TRACK 07 AUDIO
    TITLE "The Forgotten Man"
    PERFORMER "Nine Seconds"
    ISRC ITCD61400189
    INDEX 00 24:33:32
    INDEX 01 24:34:07
  TRACK 08 AUDIO
    TITLE "No Shut-Eye [Fight Back Mix]"
    PERFORMER "Nine Seconds"
    ISRC ITCD61400190
    INDEX 00 28:48:32
    INDEX 01 28:49:07
  TRACK 09 AUDIO
    TITLE "No Shuffle"
    PERFORMER "Nine Seconds"
    ISRC ITCD61400191
    INDEX 00 33:27:12
    INDEX 01 33:29:12
  TRACK 10 AUDIO
    TITLE "Planet On Fire"
    PERFORMER "Nine Seconds"
    ISRC ITCD61400192
    INDEX 00 37:21:16
    INDEX 01 37:22:16
  TRACK 11 AUDIO
    TITLE "Waiting For The Last Kiss [Nine Seconds vs Cryo][Club Mix]"
    PERFORMER "Nine Seconds"
    ISRC ITCD61400193
    INDEX 00 43:14:69
    INDEX 01 43:16:69
  TRACK 12 AUDIO
    TITLE "Attractive Lies [Nine Seconds vs Mind.In.A.Box]"
    PERFORMER "Nine Seconds"
    ISRC ITCD61400194
    INDEX 00 49:06:29
    INDEX 01 49:08:29
  TRACK 13 AUDIO
    TITLE "Antistar Machinery [Nine Seconds vs Leaether Strip]"
    PERFORMER "Nine Seconds"
    ISRC ITCD61400195
    INDEX 00 54:56:48
    INDEX 01 54:57:23
Код:
-----------------------
DON'T MODIFY THIS FILE
-----------------------
PERFORMER: auCDtect Task Manager, ver. 1.5.1RC4 build 1.5.1.5
Copyright (c) 2008-2010 y-soft. All rights reserved
[url=http://y-soft.org]http://y-soft.org[/url]
ANALYZER: auCDtect: CD records authenticity detector, version 0.8.2
Copyright (c) 2004 Oleg Berngardt. All rights reserved.
Copyright (c) 2004 Alexander Djourik. All rights reserved.
FILE: Nine Seconds - Nothing To Confess.flac
  Size: 454194925 Hash: 8DB3E711A1E773D0C1D6ED3C8F263E68 Accuracy: -m0
  Conclusion: CDDA 100%
  Signature: C0178E502616F00DA7C3BA02F578FB68077999BC
Правила, инструкции, FAQ!!!
Торрент  Добавлен [26 июн 2020, 17:49] Скачать торрент Магнет ссылка
Скачать торрент
[ Размер 19.61 КБ / Просмотров 3 ]

Статус
Проверен 
 
Размер  473.98 МБ
Приватный: Нет (DHT включён)
.torrent скачан  0
 


     Отправить личное сообщение
   
Страница 1 из 1
Показать сообщения за:  Поле сортировки  
Начать новую тему Ответить на тему


Сейчас этот форум просматривают: нет зарегистрированных пользователей и гости: 0


Вы не можете начинать темы
Вы не можете отвечать на сообщения
Вы не можете редактировать свои сообщения
Вы не можете удалять свои сообщения
Вы не можете добавлять вложения

Перейти:  
cron