Начать новую тему Ответить на тему
Статистика раздачи
Размер: 485.05 МБ | Добавлен: 26 июн 2020, 20:37 | Скачали: 0
Сидеров: 1  [0 байт/сек]    Личеров: 0  [0 байт/сек]
Пред. тема | След. тема 

Автор
Сообщение

СообщениеДобавлено: 26 июн 2020, 20:37 

Ответить с цитатой 

Leaether Strip - Retrospective
Жанр: Electro, EBM
Год выпуска диска: 1997
Производитель диска: US
Аудио кодек: FLAC
Тип рипа: image+.cue
Продолжительность: 1:09
Трэклист:
Tracklisting:
1 Japanese Bodies (4:40)
2 Zyclon B (5:23)
3 Anti Us (Psycho Strip Edit) (6:29)
4 How Do I Know (5:27)
5 Strap Me Down (5:37)
6 Razorblades (5:37)
7 Don't Tame Your Soul (5:39)
8 No Rest For The Wicked (5:29)
9 Adrenalin Rush (5:06)
10 Nosecandy (4:42)
11 Turn To Stone (5:24)
12 Face Of Evil (4:58)
13 Take The Fear Away (5:15)
14 Lies To Tell (Lights Of Euphoria Remix) (4:51)
Remix - Lights Of Euphoria
Доп. информация: Label: Cleopatra
Catalog#: CLP 9965-2
Format: CD, Compilation
Exact Audio Copy V0.99 prebeta 4 from 23. January 2008
EAC extraction logfile from 29. October 2008, 16:56
Leaether Strip / Retrospective
Used drive : Optiarc DVD RW AD-7200A Adapter: 3 ID: 1
Read mode : Secure
Utilize accurate stream : Yes
Defeat audio cache : Yes
Make use of C2 pointers : No
Read offset correction : 48
Overread into Lead-In and Lead-Out : No
Fill up missing offset samples with silence : Yes
Delete leading and trailing silent blocks : No
Null samples used in CRC calculations : Yes
Used interface : Installed external ASPI interface
Used output format : Internal WAV Routines
Sample format : 44.100 Hz; 16 Bit; Stereo
TOC of the extracted CD
Track | Start | Length | Start sector | End sector
---------------------------------------------------------
1 | 0:00.00 | 4:40.65 | 0 | 21064
2 | 4:40.65 | 5:23.70 | 21065 | 45359
3 | 10:04.60 | 6:29.25 | 45360 | 74559
4 | 16:34.10 | 5:27.30 | 74560 | 99114
5 | 22:01.40 | 5:37.25 | 99115 | 124414
6 | 27:38.65 | 5:37.07 | 124415 | 149696
7 | 33:15.72 | 5:39.63 | 149697 | 175184
8 | 38:55.60 | 5:29.60 | 175185 | 199919
9 | 44:25.45 | 5:06.25 | 199920 | 222894
10 | 49:31.70 | 4:42.20 | 222895 | 244064
11 | 54:14.15 | 5:24.00 | 244065 | 268364
12 | 59:38.15 | 4:58.37 | 268365 | 290751
13 | 64:36.52 | 5:15.13 | 290752 | 314389
14 | 69:51.65 | 4:51.35 | 314390 | 336249
Range status and errors
Selected range
Filename X:\_-Ripped-_\Leaether Strip\Leaether Strip - Retrospective.wav
Peak level 100.0 %
Range quality 99.9 %
Test CRC C517EBFE
Copy CRC C517EBFE
Copy OK
No errors occurred
AccurateRip summary
Track 1 not present in database
Track 2 not present in database
Track 3 not present in database
Track 4 not present in database
Track 5 not present in database
Track 6 not present in database
Track 7 not present in database
Track 8 not present in database
Track 9 not present in database
Track 10 not present in database
Track 11 not present in database
Track 12 not present in database
Track 13 not present in database
Track 14 not present in database
None of the tracks are present in the AccurateRip database
End of status report
Правила, инструкции, FAQ!!!
Торрент  Добавлен [26 июн 2020, 20:37] Скачать торрент Магнет ссылка
Скачать торрент
[ Размер 19.57 КБ / Просмотров 12 ]

Статус
Проверен 
 
Размер  485.05 МБ
Приватный: Нет (DHT включён)
.torrent скачан  0
 


     Отправить личное сообщение
   
Страница 1 из 1
Показать сообщения за:  Поле сортировки  
Начать новую тему Ответить на тему


Сейчас этот форум просматривают: нет зарегистрированных пользователей и гости: 0


Вы не можете начинать темы
Вы не можете отвечать на сообщения
Вы не можете редактировать свои сообщения
Вы не можете удалять свои сообщения
Вы не можете добавлять вложения

Перейти:  
cron