Начать новую тему Ответить на тему
Статистика раздачи
Размер: 521.7 МБ | Добавлен: 26 июн 2020, 20:27 | Скачали: 0
Сидеров: 0  [0 байт/сек]    Личеров: 0  [0 байт/сек]
Пред. тема | След. тема 

Автор
Сообщение

СообщениеДобавлено: 26 июн 2020, 20:27 

Ответить с цитатой 

VA - New Industries (european industrial compilation)
Жанр: Electro, EBM, Industrial
Страна-производитель диска: France
Год издания: 1995
Издатель (лейбл): Dynamica
Номер по каталогу: DY 9-2
Страна: EU
Аудиокодек: FLAC (*.flac)
Тип рипа: image+.cue
Битрейт аудио: lossless
Продолжительность: 68:32
Источник (релизер): собственноручный рип
Наличие сканов в содержимом раздачи: да
Треклист:
1. Second Skin – Disintegrating 2:57
2. Coptic Rain – Barefoot 3:34
3. Cubanate – Hatesong 4:46
4. Templebeat – Interzone 4:50
5. Die Krupps – To The Hilt 4:48
6. Think About Mutation – Kerosene 4:43
7. OOMPH! – Asshole 4:46
8. Killing Joke – Money Is Not Our God 5:16
9. Swamp Terrorists – Braintrash 4:19
10. Coptic Rain – Sweethome Under White Clouds 6:12
11. Kreator – Brainseed 3:19
12. D.N.S. – A. Leader 4:24
13. Abstinence – Frigid Changes 5:15
14. Second Skin – Bloodpressure 4:19
15. Sandow – NAC 3:56
16. No Artist – Silence 0:40
17. Unknown Artist – Untitled 0:20
Код:
Exact Audio Copy V0.99 prebeta 5 from 4. May 2009
Отчёт EAC об извлечении, выполненном 11. ноября 2012, 15:56
Various / New Industries
Дисковод: ATAPI   iHAS124   Y   Adapter: 0  ID: 1
Режим чтения                 : Достоверность
Использование точного потока : Да
Отключение кэша аудио        : Да
Использование указателей C2  : Нет
Коррекция смещения при чтении                     : 48
Способность читать области Lead-in и Lead-out     : Нет
Заполнение пропущенных сэмплов тишиной            : Да
Удаление блоков с тишиной в начале и конце        : Нет
При вычислениях CRC использовались нулевые сэмплы : Да
Интерфейс                                         : Встроенный Win32-интерфейс для Win NT/2000
Выходной формат : Внутренние WAV-операции
Формат сэмплов  : 44.100 Гц; 16 бит; стерео
TOC извлечённого CD
     Трек |   Старт  | Длительность | Начальный сектор | Конечный сектор
    ---------------------------------------------------------------------
       1  |  0:00.00 |    2:57.68   |           0      |      13342
       2  |  2:57.68 |    3:34.57   |       13343      |      29449
       3  |  6:32.50 |    4:46.07   |       29450      |      50906
       4  | 11:18.57 |    4:50.23   |       50907      |      72679
       5  | 16:09.05 |    4:48.48   |       72680      |      94327
       6  | 20:57.53 |    4:43.35   |       94328      |     115587
       7  | 25:41.13 |    4:46.45   |      115588      |     137082
       8  | 30:27.58 |    5:16.10   |      137083      |     160792
       9  | 35:43.68 |    4:19.67   |      160793      |     180284
      10  | 40:03.60 |    6:12.08   |      180285      |     208192
      11  | 46:15.68 |    3:19.55   |      208193      |     223172
      12  | 49:35.48 |    4:24.65   |      223173      |     243037
      13  | 54:00.38 |    5:15.37   |      243038      |     266699
      14  | 59:16.00 |    4:19.23   |      266700      |     286147
      15  | 63:35.23 |    3:56.00   |      286148      |     303847
      16  | 67:31.23 |    0:40.00   |      303848      |     306847
      17  | 68:11.23 |    0:20.57   |      306848      |     308404
Характеристики диапазона извлечения и сообщения об ошибках
Выбранный диапазон
     Имя файла E:\! РАЗДАЧИ\Various - New Industries\Various - New Industries.wav
     Пиковый уровень 100.0 %
     Качество диапазона 100.0 %
     CRC теста 5A0CDE6C
     CRC копии 5A0CDE6C
     Копирование... OK
Ошибок не произошло
AccurateRip: сводка
Трек  1  нет в базе данных
Трек  2  нет в базе данных
Трек  3  нет в базе данных
Трек  4  нет в базе данных
Трек  5  нет в базе данных
Трек  6  нет в базе данных
Трек  7  нет в базе данных
Трек  8  нет в базе данных
Трек  9  нет в базе данных
Трек 10  нет в базе данных
Трек 11  нет в базе данных
Трек 12  нет в базе данных
Трек 13  нет в базе данных
Трек 14  нет в базе данных
Трек 15  нет в базе данных
Трек 16  нет в базе данных
Трек 17  нет в базе данных
Ни одного трека нет в базе AccurateRip
Конец отчёта
Правила, инструкции, FAQ!!!
Торрент  Добавлен [26 июн 2020, 20:27] Скачать торрент Магнет ссылка
Скачать торрент
[ Размер 21.5 КБ / Просмотров 9 ]

Статус
Проверен 
 
Размер  521.7 МБ
Приватный: Нет (DHT включён)
.torrent скачан  0
 


     Отправить личное сообщение
   
Страница 1 из 1
Показать сообщения за:  Поле сортировки  
Начать новую тему Ответить на тему


Сейчас этот форум просматривают: нет зарегистрированных пользователей и гости: 0


Вы не можете начинать темы
Вы не можете отвечать на сообщения
Вы не можете редактировать свои сообщения
Вы не можете удалять свои сообщения
Вы не можете добавлять вложения

Перейти:  
cron