Начать новую тему Ответить на тему
Статистика раздачи
Размер: 457.79 МБ | Добавлен: 26 июн 2020, 17:02 | Скачали: 0
Сидеров: 0  [0 байт/сек]    Личеров: 0  [0 байт/сек]
Пред. тема | След. тема 

Автор
Сообщение

СообщениеДобавлено: 26 июн 2020, 17:02 

Ответить с цитатой 

Full Contact 69 - Man Machine (Version.2015)
Жанр: Electro, EBM, Industrial
Носитель: CD
Год издания: 2015
Страна-производитель диска: Russia
Аудиокодек: FLAC (*.flac)
Тип рипа: image+.cue
Битрейт аудио: lossless
Продолжительность: 60:15
Источник (релизер): Собственный диск
Наличие сканов в содержимом раздачи: нет

Трэклист:
01 No First Use Policy 4:28
02 Below The Belt 4:04
03 Man Maschine 4:47
04 The Concept 4:27
05 Nothing Grows In Shade 3:25
06 Recognize My State 5:01
07 I Cum In Your Mouth 5:14
08 Psychopomp 4:47
09 Seelenkrieger 4:27
10 Bluefaceshiter 4:30
11 If I Can Smell Your Sweat 3:28
12 Resistance 4:14
13 Dirtyman In Space 6:48
Код:
Exact Audio Copy V1.1 from 23. June 2015
Отчёт EAC об извлечении, выполненном 24. июля 2015, 20:55
Full Contact 69 / Man Machine (Version.2015)
Дисковод: HL-DT-STDVDRAM GH24NSC0   Adapter: 2  ID: 0
Режим чтения                 : Достоверность
Использование точного потока : Да
Отключение кэша аудио        : Да
Использование указателей C2  : Нет
Коррекция смещения при чтении                     : 6
Способность читать области Lead-in и Lead-out     : Нет
Заполнение пропущенных сэмплов тишиной            : Да
Удаление блоков с тишиной в начале и конце        : Нет
При вычислениях CRC использовались нулевые сэмплы : Да
Интерфейс                                         : Встроенный Win32-интерфейс для Win NT/2000
Выходной формат          : Пользовательский кодировщик
Выбранный битрейт        : 128 kBit/s
Качество                 : Высокий
Добавление ID3-тега      : Нет
Утилита сжатия           : C:\Program Files (x86)\Exact Audio Copy\Flac\flac.exe
Дополнительные параметры : -V -8 -T "Date=%year%" -T "Genre=%genre%" %source%
TOC извлечённого CD
     Трек |   Старт  | Длительность | Начальный сектор | Конечный сектор
    ---------------------------------------------------------------------
       1  |  0:00.00 |    4:28.00   |           0      |      20099
       2  |  4:28.00 |    4:04.02   |       20100      |      38401
       3  |  8:32.02 |    4:46.65   |       38402      |      59916
       4  | 13:18.67 |    4:24.00   |       59917      |      79716
       5  | 17:42.67 |    3:24.44   |       79717      |      95060
       6  | 21:07.36 |    5:01.13   |       95061      |     117648
       7  | 26:08.49 |    5:14.00   |      117649      |     141198
       8  | 31:22.49 |    4:46.42   |      141199      |     162690
       9  | 36:09.16 |    4:27.00   |      162691      |     182715
      10  | 40:36.16 |    5:08.42   |      182716      |     205857
      11  | 45:44.58 |    3:28.00   |      205858      |     221457
      12  | 49:12.58 |    4:14.32   |      221458      |     240539
      13  | 53:27.15 |    6:48.44   |      240540      |     271183
Характеристики диапазона извлечения и сообщения об ошибках
Выбранный диапазон
     Имя файла M:\Full Contact 69 - Man Machine (Version.2015).wav
     Пиковый уровень 98.9 %
     Скорость извлечения 7.2 X
     Качество диапазона 99.9 %
     CRC теста 832C3578
     CRC копии 832C3578
     Копирование... OK
Ошибок не произошло
AccurateRip: сводка
Трек  1  отсутствует в базе данных
Трек  2  отсутствует в базе данных
Трек  3  отсутствует в базе данных
Трек  4  отсутствует в базе данных
Трек  5  отсутствует в базе данных
Трек  6  отсутствует в базе данных
Трек  7  отсутствует в базе данных
Трек  8  отсутствует в базе данных
Трек  9  отсутствует в базе данных
Трек 10  отсутствует в базе данных
Трек 11  отсутствует в базе данных
Трек 12  отсутствует в базе данных
Трек 13  отсутствует в базе данных
Ни одного трека нет в базе AccurateRip
Конец отчёта
---- CUETools DB Plugin V2.1.6
[CTDB TOCID: _b8CiLWbArkEGsjhTcXp.Gx4bsI-] disk not present in database
Submit result: _b8CiLWbArkEGsjhTcXp.Gx4bsI- has been uploaded
==== Контрольная сумма отчёта 36A290AB9E94578EDE045B6F32DBB0E50B57C4B81A8253E8FE29125970220AFD ====
Код:
REM GENRE Industrial
REM DATE 2015
REM DISCID AD0E1F0D
REM COMMENT "ExactAudioCopy v1.1"
PERFORMER "Full Contact 69"
TITLE "Man Machine (Version.2015)"
FILE "Full Contact 69 - Man Machine (Version.2015).flac" WAVE
  TRACK 01 AUDIO
    TITLE "No First Use Policy"
    PERFORMER "Full Contact 69"
    INDEX 01 00:00:00
  TRACK 02 AUDIO
    TITLE "Below The Belt"
    PERFORMER "Full Contact 69"
    INDEX 01 04:28:00
  TRACK 03 AUDIO
    TITLE "Man Machine"
    PERFORMER "Full Contact 69"
    INDEX 01 08:32:02
  TRACK 04 AUDIO
    TITLE "The Concept"
    PERFORMER "Full Contact 69"
    INDEX 01 13:18:67
  TRACK 05 AUDIO
    TITLE "Nothing Grows In Shade"
    PERFORMER "Full Contact 69"
    INDEX 01 17:42:67
  TRACK 06 AUDIO
    TITLE "Recognize My State"
    PERFORMER "Full Contact 69"
    INDEX 01 21:07:36
  TRACK 07 AUDIO
    TITLE "I Cum In Your Mouth"
    PERFORMER "Full Contact 69"
    INDEX 01 26:08:49
  TRACK 08 AUDIO
    TITLE "Psychopomp"
    PERFORMER "Full Contact 69"
    INDEX 01 31:22:49
  TRACK 09 AUDIO
    TITLE "Seelenkrieger"
    PERFORMER "Full Contact 69"
    INDEX 01 36:09:16
  TRACK 10 AUDIO
    TITLE "Bluefaceshiter"
    PERFORMER "Full Contact 69"
    INDEX 01 40:36:16
  TRACK 11 AUDIO
    TITLE "If I Can Smell Your Sweat"
    PERFORMER "Full Contact 69"
    INDEX 01 45:44:58
  TRACK 12 AUDIO
    TITLE "Resistance"
    PERFORMER "Full Contact 69"
    INDEX 01 49:12:58
  TRACK 13 AUDIO
    TITLE "Dirtyman In Space"
    PERFORMER "Full Contact 69"
    INDEX 01 53:27:15
Правила, инструкции, FAQ!!!
Торрент  Добавлен [26 июн 2020, 17:02] Скачать торрент Магнет ссылка
Скачать торрент
[ Размер 18.56 КБ / Просмотров 2 ]

Статус
Проверен 
 
Размер  457.79 МБ
Приватный: Нет (DHT включён)
.torrent скачан  0
 


     Отправить личное сообщение
   
Страница 1 из 1
Показать сообщения за:  Поле сортировки  
Начать новую тему Ответить на тему


Сейчас этот форум просматривают: нет зарегистрированных пользователей и гости: 0


Вы не можете начинать темы
Вы не можете отвечать на сообщения
Вы не можете редактировать свои сообщения
Вы не можете удалять свои сообщения
Вы не можете добавлять вложения

Перейти:  
cron