Начать новую тему Ответить на тему
Статистика раздачи
Размер: 1.11 ГБ | Добавлен: 26 июн 2020, 17:39 | Скачали: 0
Сидеров: 0  [0 байт/сек]    Личеров: 0  [0 байт/сек]
Пред. тема | След. тема 

Автор
Сообщение

СообщениеДобавлено: 26 июн 2020, 17:39 

Ответить с цитатой 

Dark Trance vs. Neo-Goth vol.1 (Nonstop Mix By Dj RiB)
Жанр: Electro, EBM, Industrial
Год выпуска диска: 2005
Производитель диска: USA
Аудио кодек: APE
Тип рипа: image+.cue
Битрейт аудио: lossless
Продолжительность: 2 CD (74:02+77:11)
Трэклист:
CD 01:
01. Razed in Black - Blush v.2 6:13
02. Mnemonic - Labrynth (Razed In Black mix) 4:25
03. Loudest Silence - Starting out 4:00
04. Cream Pipe - Resurrected 3:06
05. Aiboforcen - Twilight World (Icon of Coil mix) 4:11
06. X-Marks the Pedwalk - Never Look Back 4:02
07. Delobbo - En Parazov 4:15
08. Rhinneradio - Kuvala (Wazari mix) 6:12
09. Blue Pace - Aurelie 5:28
10. UV - Dementia (Razed in Black mix) 4:41
11. Voodoo and Serano - Blood is Pumping 3:29
12. Nebula-H - Symbiosis 4:02
13. Brain Inc. - Running Man (Rework) 5:33
14. Ego Traum - Rancho Strategy 2:59
15. Soil and Eclipse - Master of Puppets 2:43
16. Talla 2XLC - Revolution 4:57
17. Encoder - Dancemotherfuckers 3:37
Код:
Exact Audio Copy V0.99 prebeta 5 from 4. May 2009
Отчёт EAC об извлечении, выполненном 24. декабря 2009, 4:00
Various / Dark Trance VS. Neo-Goth  Volume 1 (Disc 1)(Mixed by DJ Razed In Black)
Дисковод: _NEC    DVD_RW ND-4550A   Adapter: 0  ID: 0
Режим чтения                 : Достоверность
Использование точного потока : Да
Отключение кэша аудио        : Да
Использование указателей C2  : Нет
Коррекция смещения при чтении                     : 48
Способность читать области Lead-in и Lead-out     : Нет
Заполнение пропущенных сэмплов тишиной            : Да
Удаление блоков с тишиной в начале и конце        : Нет
При вычислениях CRC использовались нулевые сэмплы : Да
Интерфейс                                         : Установленный внешний ASPI-интерфейс
Выходной формат : Внутренние WAV-операции
Формат сэмплов  : 44.100 Гц; 16 бит; стерео
TOC извлечённого CD
     Трек |   Старт  | Длительность | Начальный сектор | Конечный сектор
    ---------------------------------------------------------------------
       1  |  0:00.00 |    6:13.17   |           0      |      27991
       2  |  6:13.17 |    4:25.36   |       27992      |      47902
       3  | 10:38.53 |    4:00.71   |       47903      |      65973
       4  | 14:39.49 |    3:06.65   |       65974      |      79988
       5  | 17:46.39 |    4:11.26   |       79989      |      98839
       6  | 21:57.65 |    4:02.54   |       98840      |     117043
       7  | 26:00.44 |    4:15.52   |      117044      |     136220
       8  | 30:16.21 |    6:12.03   |      136221      |     164123
       9  | 36:28.24 |    5:28.05   |      164124      |     188728
      10  | 41:56.29 |    4:41.28   |      188729      |     209831
      11  | 46:37.57 |    3:29.23   |      209832      |     225529
      12  | 50:07.05 |    4:02.53   |      225530      |     243732
      13  | 54:09.58 |    5:33.17   |      243733      |     268724
      14  | 59:43.00 |    2:59.38   |      268725      |     282187
      15  | 62:42.38 |    2:43.46   |      282188      |     294458
      16  | 65:26.09 |    4:57.68   |      294459      |     316801
      17  | 70:24.02 |    3:37.74   |      316802      |     333150
Характеристики диапазона извлечения и сообщения об ошибках
Выбранный диапазон
     Имя файла E:\! РАЗДАЧИ\Various - Dark Trance VS. Neo-Goth  Volume 1\Various - Dark Trance VS. Neo-Goth  Volume 1 (Disc 1)(Mixed by DJ Razed In Black).wav
     Пиковый уровень 100.0 %
     Качество диапазона 99.9 %
     CRC теста E0CD43E8
     CRC копии E0CD43E8
     Копирование... OK
Ошибок не произошло
AccurateRip: сводка
Трек  1  нет в базе данных
Трек  2  нет в базе данных
Трек  3  нет в базе данных
Трек  4  нет в базе данных
Трек  5  нет в базе данных
Трек  6  нет в базе данных
Трек  7  нет в базе данных
Трек  8  нет в базе данных
Трек  9  нет в базе данных
Трек 10  нет в базе данных
Трек 11  нет в базе данных
Трек 12  нет в базе данных
Трек 13  нет в базе данных
Трек 14  нет в базе данных
Трек 15  нет в базе данных
Трек 16  нет в базе данных
Трек 17  нет в базе данных
Ни одного трека нет в базе AccurateRip
Конец отчёта
CD 02:
01. Blank and Jones f/Robert Smith - A Forest (Ron van den Beuken mix) 5:10
02. Lost Witness - Did I Dream (DJ Tiesto mix) 4:08
03. Neotek - Suicide (Senseless remix edit) 4:12
04. Blue Pace - Jacqueline 4:50
05. Ayria - Debris (Rotersand Rework) 3:27
06. Neikka RPM - Heres Your Revolution (Negative Format mix) 3:34
07. 13 Ways - How Could You 3:56
08. Talla 2XLC - Bring Me Back Light 5:15
09. Celldweller - Frozen (DJ RiB mix) 4:32
10. Mirco de Govia - Epic Monolith (Kyau vs. Albert mix) 3:55
11. Beigeback - Drunker Donor 3:56
12. Effcee vs. Grass Roots - Midnight Confessions 2:44
13. Pussy Possee - Dominous 4:28
14. Leftoversound - Bound (irrational mix) 3:24
15. Sinead O'connor - Troy (Pulsedriver mix) 5:46
16. VNV Nation - D.M.S.O. 3:54
17. Transmutator f/Chris G - The Lover 5:24
18. Harshrealm - I Could Be You (Razed In Black mix) 4:27
Код:
Exact Audio Copy V0.99 prebeta 5 from 4. May 2009
Отчёт EAC об извлечении, выполненном 24. декабря 2009, 4:32
Various / Dark Trance Vs. Neo-Goth disc 2
Дисковод: _NEC    DVD_RW ND-4550A   Adapter: 0  ID: 0
Режим чтения                 : Достоверность
Использование точного потока : Да
Отключение кэша аудио        : Да
Использование указателей C2  : Нет
Коррекция смещения при чтении                     : 48
Способность читать области Lead-in и Lead-out     : Нет
Заполнение пропущенных сэмплов тишиной            : Да
Удаление блоков с тишиной в начале и конце        : Нет
При вычислениях CRC использовались нулевые сэмплы : Да
Интерфейс                                         : Установленный внешний ASPI-интерфейс
Выходной формат : Внутренние WAV-операции
Формат сэмплов  : 44.100 Гц; 16 бит; стерео
TOC извлечённого CD
     Трек |   Старт  | Длительность | Начальный сектор | Конечный сектор
    ---------------------------------------------------------------------
       1  |  0:00.00 |    5:10.35   |           0      |      23284
       2  |  5:10.35 |    4:08.22   |       23285      |      41906
       3  |  9:18.57 |    4:12.21   |       41907      |      60827
       4  | 13:31.03 |    4:50.20   |       60828      |      82597
       5  | 18:21.23 |    3:27.29   |       82598      |      98151
       6  | 21:48.52 |    3:34.28   |       98152      |     114229
       7  | 25:23.05 |    3:56.68   |      114230      |     131997
       8  | 29:19.73 |    5:15.58   |      131998      |     155680
       9  | 34:35.56 |    4:32.22   |      155681      |     176102
      10  | 39:08.03 |    3:55.65   |      176103      |     193792
      11  | 43:03.68 |    3:56.45   |      193793      |     211537
      12  | 47:00.38 |    2:44.67   |      211538      |     223904
      13  | 49:45.30 |    4:28.17   |      223905      |     244021
      14  | 54:13.47 |    3:24.56   |      244022      |     259377
      15  | 57:38.28 |    5:46.18   |      259378      |     285345
      16  | 63:24.46 |    3:54.72   |      285346      |     302967
      17  | 67:19.43 |    5:24.09   |      302968      |     327276
      18  | 72:43.52 |    4:27.28   |      327277      |     347329
Характеристики диапазона извлечения и сообщения об ошибках
Выбранный диапазон
     Имя файла E:\! РАЗДАЧИ\Various - Dark Trance VS. Neo-Goth  Volume 1\Various - Dark Trance VS. Neo-Goth  Volume 1 (Disc 2)(Mixed by DJ Razed In Black).wav
     Пиковый уровень 100.0 %
     Качество диапазона 100.0 %
     CRC теста A61A4E16
     CRC копии A61A4E16
     Копирование... OK
Ошибок не произошло
AccurateRip: сводка
Трек  1  нет в базе данных
Трек  2  нет в базе данных
Трек  3  нет в базе данных
Трек  4  нет в базе данных
Трек  5  нет в базе данных
Трек  6  нет в базе данных
Трек  7  нет в базе данных
Трек  8  нет в базе данных
Трек  9  нет в базе данных
Трек 10  нет в базе данных
Трек 11  нет в базе данных
Трек 12  нет в базе данных
Трек 13  нет в базе данных
Трек 14  нет в базе данных
Трек 15  нет в базе данных
Трек 16  нет в базе данных
Трек 17  нет в базе данных
Трек 18  нет в базе данных
Ни одного трека нет в базе AccurateRip
Конец отчёта
Доп. информация: (p)(c) 2005 Cleopatra Records
сканы 300dpi прилагаются
Правила, инструкции, FAQ!!!
Торрент  Добавлен [26 июн 2020, 17:39] Скачать торрент Магнет ссылка
Скачать торрент
[ Размер 24.4 КБ / Просмотров 12 ]

Статус
Проверен 
 
Размер  1.11 ГБ
Приватный: Нет (DHT включён)
.torrent скачан  0
 


     Отправить личное сообщение
   
Страница 1 из 1
Показать сообщения за:  Поле сортировки  
Начать новую тему Ответить на тему


Сейчас этот форум просматривают: нет зарегистрированных пользователей и гости: 0


Вы не можете начинать темы
Вы не можете отвечать на сообщения
Вы не можете редактировать свои сообщения
Вы не можете удалять свои сообщения
Вы не можете добавлять вложения

Перейти:  
cron