Начать новую тему Ответить на тему
Статистика раздачи
Размер: 431 МБ | Добавлен: 26 июн 2020, 17:27 | Скачали: 0
Сидеров: 0  [0 байт/сек]    Личеров: 0  [0 байт/сек]
Пред. тема | След. тема 

Автор
Сообщение

СообщениеДобавлено: 26 июн 2020, 17:27 

Ответить с цитатой 

Hired.Life / End Of Line
Жанр: Electro/EBM
Страна-производитель диска: Russia
Год издания: 2011
Издатель (лейбл): gravitator
Страна: Russia
Аудиокодек: FLAC (*.flac)
Тип рипа: image+.cue
Битрейт аудио: lossless
Продолжительность: 59min 19sec
Источник (релизер): кажется rd
Наличие сканов в содержимом раздачи: да
Треклист:
01. Hire Me
02. The Factory [For Iron Dragon's Daughter]
03. My Catwalk
04. Pilot
05. M.I.A. [Hired.Life Edit]
06. Contract [Album Version]
07. For Ever And A Day
08. Nightcity Fairy-Tales
09. Farewell
10. End Of Line
11. Last Kilowatt-Hour
12. Star
13. Farewell [Instrumental Version by Fr@ktal] [Bonus Track]
14. Farewell [Remix by Spin Provider] [Bonus Track]
Код:
Exact Audio Copy V0.99 prebeta 5 from 4. May 2009
EAC extraction logfile from 27. August 2011, 0:01
HIRED.LIFE / End Of Line
Used drive  : PLEXTOR DVDR   PX-860A   Adapter: 0  ID: 0
Read mode               : Secure
Utilize accurate stream : Yes
Defeat audio cache      : Yes
Make use of C2 pointers : No
Read offset correction                      : 96
Overread into Lead-In and Lead-Out          : No
Fill up missing offset samples with silence : Yes
Delete leading and trailing silent blocks   : No
Null samples used in CRC calculations       : Yes
Used interface                              : Installed external ASPI interface
Used output format              : User Defined Encoder
Selected bitrate                : 1024 kBit/s
Quality                         : High
Add ID3 tag                     : Yes
Command line compressor         : C:\Program Files\Exact Audio Copy\FLAC.EXE
Additional command line options : -6 -V %s
TOC of the extracted CD
     Track |   Start  |  Length  | Start sector | End sector
    ---------------------------------------------------------
        1  |  0:00.00 |  5:55.64 |         0    |    26688
        2  |  5:55.64 |  4:12.00 |     26689    |    45588
        3  | 10:07.64 |  4:08.00 |     45589    |    64188
        4  | 14:15.64 |  4:51.63 |     64189    |    86076
        5  | 19:07.52 |  3:21.17 |     86077    |   101168
        6  | 22:28.69 |  6:00.00 |    101169    |   128168
        7  | 28:28.69 |  4:36.69 |    128169    |   148937
        8  | 33:05.63 |  5:46.00 |    148938    |   174887
        9  | 38:51.63 |  4:28.00 |    174888    |   194987
       10  | 43:19.63 |  3:41.40 |    194988    |   211602
       11  | 47:01.28 |  1:16.00 |    211603    |   217302
       12  | 48:17.28 |  3:56.23 |    217303    |   235025
       13  | 52:13.51 |  3:50.00 |    235026    |   252275
       14  | 56:03.51 |  3:42.64 |    252276    |   268989
Range status and errors
Selected range
     Filename J:\MUSIC\HIRED.LIFE - End Of Line.wav
     Peak level 100.0 %
     Range quality 99.9 %
     Test CRC 83978E4C
     Copy CRC 83978E4C
     Copy OK
No errors occurred
AccurateRip summary
Track  1  not present in database
Track  2  not present in database
Track  3  not present in database
Track  4  not present in database
Track  5  not present in database
Track  6  not present in database
Track  7  not present in database
Track  8  not present in database
Track  9  not present in database
Track 10  not present in database
Track 11  not present in database
Track 12  not present in database
Track 13  not present in database
Track 14  not present in database
None of the tracks are present in the AccurateRip database
End of status report
Правила, инструкции, FAQ!!!
Торрент  Добавлен [26 июн 2020, 17:27] Скачать торрент Магнет ссылка
Скачать торрент
[ Размер 17.79 КБ / Просмотров 5 ]

Статус
Проверен 
 
Размер  431 МБ
Приватный: Нет (DHT включён)
.torrent скачан  0
 


     Отправить личное сообщение
   
Страница 1 из 1
Показать сообщения за:  Поле сортировки  
Начать новую тему Ответить на тему


Сейчас этот форум просматривают: нет зарегистрированных пользователей и гости: 0


Вы не можете начинать темы
Вы не можете отвечать на сообщения
Вы не можете редактировать свои сообщения
Вы не можете удалять свои сообщения
Вы не можете добавлять вложения

Перейти:  
cron