Начать новую тему Ответить на тему
Статистика раздачи
Размер: 416.45 МБ | Добавлен: 26 июн 2020, 16:59 | Скачали: 0
Сидеров: 0  [0 байт/сек]    Личеров: 0  [0 байт/сек]
Пред. тема | След. тема 

Автор
Сообщение

СообщениеДобавлено: 26 июн 2020, 16:59 

Ответить с цитатой 

Grandchaos - We Suffer When The World Changes


Жанр: Electro | EBM
Носитель: CD
Год издания: 2014
Издатель (лейбл): EK Product
Номер по каталогу: EKPCD035
Страна исполнителя (группы): Belgium
Аудиокодек: FLAC (*.flac)
Тип рипа: image+.cue
Битрейт аудио: lossless
Продолжительность: 01:06:54
Источник (релизер): termoflex
Наличие сканов: да
Треклист:
01. The Light (feat. Jacky Meurisse) [00:03:12]
02. Man On Fire [00:03:50]
03. Love And Hate [00:04:57]
04. The Death Of You And Me (feat. Jacky Meurisse) [00:04:00]
05. The Tempest [00:04:15]
06. Pulse (909 Version) [00:03:30]
07. We Suffer [00:04:38]
08. Memory Is A Poison [00:03:12]
09. Tell Me You Love Me [00:02:37]
10. Pulse (808 Version) [00:03:31]
11. End Of Transmission [00:03:23]
12. The Tempest (Ethan Fawkes Remix) [00:04:20]
13. The Death Of You And Me (Atropine Remix) [00:05:20]
14. Tell Me You Love Me (VV303 Remix) [00:04:32]
15. The Death Of You And Me (#366 A Live Lifed Remix) [00:07:40]
16. Memory Is A Poison (Parade Ground Remix) [00:03:22]


Код:
Exact Audio Copy V1.0 beta 3 from 29. August 2011
Отчёт EAC об извлечении, выполненном 6. ноября 2014, 11:28
Grandchaos / We Suffer When The World Changes
Дисковод: MATSHITADVD-RAM UJ8E2 S   Adapter: 0  ID: 0
Режим чтения                 : Достоверность
Использование точного потока : Да
Отключение кэша аудио        : Да
Использование указателей C2  : Нет
Коррекция смещения при чтении                     : 103
Способность читать области Lead-in и Lead-out     : Нет
Заполнение пропущенных сэмплов тишиной            : Да
Удаление блоков с тишиной в начале и конце        : Нет
При вычислениях CRC использовались нулевые сэмплы : Да
Интерфейс                                         : Встроенный Win32-интерфейс для Win NT/2000
Выходной формат          : Пользовательский кодировщик
Выбранный битрейт        : 1024 kBit/s
Качество                 : Высокий
Добавление ID3-тега      : Нет
Утилита сжатия           : C:\Program Files (x86)\Exact Audio Copy\Flac\flac.exe
Дополнительные параметры : -V -8 -T "Date=%year%" -T "Genre=%genre%" -T "Comment=ripped by termoflex" %source%
TOC извлечённого CD
     Трек |   Старт  | Длительность | Начальный сектор | Конечный сектор
    ---------------------------------------------------------------------
       1  |  0:00.00 |    3:14.00   |           0      |      14549
       2  |  3:14.00 |    3:52.46   |       14550      |      31995
       3  |  7:06.46 |    4:59.00   |       31996      |      54420
       4  | 12:05.46 |    4:02.00   |       54421      |      72570
       5  | 16:07.46 |    4:17.08   |       72571      |      91853
       6  | 20:24.54 |    3:32.00   |       91854      |     107753
       7  | 23:56.54 |    4:40.35   |      107754      |     128788
       8  | 28:37.14 |    3:14.54   |      128789      |     143392
       9  | 31:51.68 |    2:39.37   |      143393      |     155354
      10  | 34:31.30 |    3:33.65   |      155355      |     171394
      11  | 38:05.20 |    3:25.00   |      171395      |     186769
      12  | 41:30.20 |    4:22.00   |      186770      |     206419
      13  | 45:52.20 |    5:22.00   |      206420      |     230569
      14  | 51:14.20 |    4:34.00   |      230570      |     251119
      15  | 55:48.20 |    7:42.00   |      251120      |     285769
      16  | 63:30.20 |    3:24.00   |      285770      |     301069
Характеристики диапазона извлечения и сообщения об ошибках
Выбранный диапазон
     Имя файла C:\Users\User\Music\Grandchaos - We Suffer When The World Changes.wav
     Пиковый уровень 100.0 %
     Скорость извлечения 1.3 X
     Качество диапазона 100.0 %
     CRC теста CC5008FB
     CRC копии CC5008FB
     Копирование... OK
Ошибок не произошло
AccurateRip: сводка
Трек  1  отсутствует в базе данных
Трек  2  отсутствует в базе данных
Трек  3  отсутствует в базе данных
Трек  4  отсутствует в базе данных
Трек  5  отсутствует в базе данных
Трек  6  отсутствует в базе данных
Трек  7  отсутствует в базе данных
Трек  8  отсутствует в базе данных
Трек  9  отсутствует в базе данных
Трек 10  отсутствует в базе данных
Трек 11  отсутствует в базе данных
Трек 12  отсутствует в базе данных
Трек 13  отсутствует в базе данных
Трек 14  отсутствует в базе данных
Трек 15  отсутствует в базе данных
Трек 16  отсутствует в базе данных
Ни одного трека нет в базе AccurateRip
Конец отчёта
---- CUETools DB Plugin V2.1.4
[CTDB TOCID: mGtndg6wHIzm5r7Ls1GqEtx7Mf0-] disk not present in database
Submit result: mGtndg6wHIzm5r7Ls1GqEtx7Mf0- has been uploaded
==== Контрольная сумма отчёта 8A53223CD6B4AE8009715E457430367FFFF0FE7A93B7ED95AB8D93004D3AE1DA ====
Код:
REM GENRE Electro
REM DATE 2014
REM DISCID EE0FAE10
REM COMMENT "ExactAudioCopy v1.0b3"
PERFORMER "Grandchaos"
TITLE "We Suffer When The World Changes"
FILE "Grandchaos - We Suffer When The World Changes.flac" WAVE
  TRACK 01 AUDIO
    TITLE "The Light (feat. Jacky Meurisse)"
    PERFORMER "Grandchaos"
    FLAGS DCP
    INDEX 01 00:00:00
  TRACK 02 AUDIO
    TITLE "Man On Fire"
    PERFORMER "Grandchaos"
    FLAGS DCP
    INDEX 00 03:12:00
    INDEX 01 03:14:00
  TRACK 03 AUDIO
    TITLE "Love And Hate"
    PERFORMER "Grandchaos"
    FLAGS DCP
    INDEX 00 07:04:46
    INDEX 01 07:06:46
  TRACK 04 AUDIO
    TITLE "The Death Of You And Me (feat. Jacky Meurisse)"
    PERFORMER "Grandchaos"
    FLAGS DCP
    INDEX 00 12:03:46
    INDEX 01 12:05:46
  TRACK 05 AUDIO
    TITLE "The Tempest"
    PERFORMER "Grandchaos"
    FLAGS DCP
    INDEX 00 16:05:46
    INDEX 01 16:07:46
  TRACK 06 AUDIO
    TITLE "Pulse (909 Version)"
    PERFORMER "Grandchaos"
    FLAGS DCP
    INDEX 00 20:22:54
    INDEX 01 20:24:54
  TRACK 07 AUDIO
    TITLE "We Suffer"
    PERFORMER "Grandchaos"
    FLAGS DCP
    INDEX 00 23:54:54
    INDEX 01 23:56:54
  TRACK 08 AUDIO
    TITLE "Memory Is A Poison"
    PERFORMER "Grandchaos"
    FLAGS DCP
    INDEX 00 28:35:14
    INDEX 01 28:37:14
  TRACK 09 AUDIO
    TITLE "Tell Me You Love Me"
    PERFORMER "Grandchaos"
    FLAGS DCP
    INDEX 00 31:49:68
    INDEX 01 31:51:68
  TRACK 10 AUDIO
    TITLE "Pulse (808 Version)"
    PERFORMER "Grandchaos"
    FLAGS DCP
    INDEX 00 34:29:30
    INDEX 01 34:31:30
  TRACK 11 AUDIO
    TITLE "End Of Transmission"
    PERFORMER "Grandchaos"
    FLAGS DCP
    INDEX 00 38:03:20
    INDEX 01 38:05:20
  TRACK 12 AUDIO
    TITLE "The Tempest (Ethan Fawkes Remix)"
    PERFORMER "Grandchaos"
    FLAGS DCP
    INDEX 00 41:28:20
    INDEX 01 41:30:20
  TRACK 13 AUDIO
    TITLE "The Death Of You And Me (Atropine Remix)"
    PERFORMER "Grandchaos"
    FLAGS DCP
    INDEX 00 45:50:20
    INDEX 01 45:52:20
  TRACK 14 AUDIO
    TITLE "Tell Me You Love Me (VV303 Remix)"
    PERFORMER "Grandchaos"
    FLAGS DCP
    INDEX 00 51:12:20
    INDEX 01 51:14:20
  TRACK 15 AUDIO
    TITLE "The Death Of You And Me (#366 A Live Lifed Remix)"
    PERFORMER "Grandchaos"
    FLAGS DCP
    INDEX 00 55:46:20
    INDEX 01 55:48:20
  TRACK 16 AUDIO
    TITLE "Memory Is A Poison (Parade Ground Remix)"
    PERFORMER "Grandchaos"
    FLAGS DCP
    INDEX 00 63:28:20
    INDEX 01 63:30:20
Код:
-----------------------
DON'T MODIFY THIS FILE
-----------------------
PERFORMER: auCDtect Task Manager, ver. 1.5.1RC4 build 1.5.1.5
Copyright (c) 2008-2010 y-soft. All rights reserved
[url=http://y-soft.org]http://y-soft.org[/url]
ANALYZER: auCDtect: CD records authenticity detector, version 0.8.2
Copyright (c) 2004 Oleg Berngardt. All rights reserved.
Copyright (c) 2004 Alexander Djourik. All rights reserved.
FILE: Grandchaos - We Suffer When The World Changes.flac
  Size: 416441797 Hash: C7D897AADD27528A5AE8D9040C95B4B6 Accuracy: -m0
  Conclusion: CDDA 100%
  Signature: D75580A9628BB9A19709279E7C08370B0D84C0A7
Правила, инструкции, FAQ!!!
Торрент  Добавлен [26 июн 2020, 16:59] Скачать торрент Магнет ссылка
Скачать торрент
[ Размер 17.23 КБ / Просмотров 5 ]

Статус
Проверен 
 
Размер  416.45 МБ
Приватный: Нет (DHT включён)
.torrent скачан  0
 


     Отправить личное сообщение
   
Страница 1 из 1
Показать сообщения за:  Поле сортировки  
Начать новую тему Ответить на тему


Сейчас этот форум просматривают: нет зарегистрированных пользователей и гости: 0


Вы не можете начинать темы
Вы не можете отвечать на сообщения
Вы не можете редактировать свои сообщения
Вы не можете удалять свои сообщения
Вы не можете добавлять вложения

Перейти:  
cron