Начать новую тему Ответить на тему
Статистика раздачи
Размер: 980.73 МБ | Добавлен: 26 июн 2020, 20:21 | Скачали: 0
Сидеров: 0  [0 байт/сек]    Личеров: 8  [0 байт/сек]
Пред. тема | След. тема 

Автор
Сообщение

СообщениеДобавлено: 26 июн 2020, 20:21 

Ответить с цитатой 

Metallspuerhunde (Metallspürhunde) / Moloch (2CD Limited Edition)
Жанр: Electro, EBM, Goth Rock
Страна-производитель диска: Germany
Год издания диска: 2011
Издатель (лейбл): Danse Macabre
Номер по каталогу: None
Страна: Switzerland
Аудиокодек: FLAC (*.flac)
Тип рипа: image+.cue
Битрейт аудио: lossless
Продолжительность: 1:05:19.57 + 0:52:47.46
Источник (релизер): 2CD из личной коллекции.
Наличие сканов в содержимом раздачи: да
CD 1 - Moloch
01. Alarm 4:44
02. Kein Herz 4:59
03. Es Wird Gestorben 5:29
04. Moloch 4:50
05. Synasthetische Magie 4:21
06. Gespenster 6:42
07. L'Enfer 5:14
08. Es Geht Weiter 5:44
09. So Laut 4:44
10. Die Wand 5:37
11. Das Virus 4:10
12. Kranze 4:36
13. Das Pendel 5:37
CD 2 - Remix Collection
01. Blut & Spiele (Remix By Kadaver Acht) 5:43
02. Blut & Spiele (Zerberus Remix By Noktis) 5:01
03. Obszone Neue Welt (Remix By Unmensch) 4:52
04. Obszone Neue Welt (Remix By Cyber S[?]ain't) 4:39
05. Obszone Neue Welt (Remix By Irrlicht) 4:42
06. Mach Es Wieder Gut (Remix By Unmensch) 4:22
07. Wo Gehst Du Hin? (Shizophobia's Power Cut Remix) 4:14
08. Ou Iras-Tu? (Remix By Kissin' Black) 4:38
09. Heuchler (Remix By Vhelena Projekt) 4:57
10. In Deinem Bann (Remix By Soul In Sadness) 4:49
11. In Deinem Bann (Remix By O.S.C.) 4:50
Код:
Exact Audio Copy V0.99 prebeta 5 from 4. May 2009
Отчёт EAC об извлечении, выполненном 4. ноября 2011, 12:41
Metallspuerhunde / Moloch
Дисковод: TSSTcorpCDDVDW TS-L632H   Adapter: 0  ID: 0
Режим чтения                 : Достоверность
Использование точного потока : Да
Отключение кэша аудио        : Да
Использование указателей C2  : Нет
Коррекция смещения при чтении                     : 6
Способность читать области Lead-in и Lead-out     : Нет
Заполнение пропущенных сэмплов тишиной            : Да
Удаление блоков с тишиной в начале и конце        : Нет
При вычислениях CRC использовались нулевые сэмплы : Да
Интерфейс                                         : Встроенный Win32-интерфейс для Win NT/2000
Выходной формат          : Пользовательский кодировщик
Выбранный битрейт        : 1024 kBit/s
Качество                 : Высокий
Добавление ID3-тэга      : Нет
Утилита сжатия           : C:\Program Files\Exact Audio Copy\FLAC\FLAC.EXE
Дополнительные параметры : -6 -V -T "ARTIST=%a" -T "TITLE=%t" -T "ALBUM=%g" -T "DATE=%y" -T "TRACKNUMBER=%n" -T "GENRE=%m" -T "COMMENT=%e" %s -o %d
TOC извлечённого CD
     Трек |   Старт  | Длительность | Начальный сектор | Конечный сектор
    ---------------------------------------------------------------------
       1  |  0:00.00 |    4:36.58   |           0      |      20757
       2  |  4:36.58 |    4:59.03   |       20758      |      43185
       3  |  9:35.61 |    5:20.57   |       43186      |      67242
       4  | 14:56.43 |    4:46.34   |       67243      |      88726
       5  | 19:43.02 |    4:22.11   |       88727      |     108387
       6  | 24:05.13 |    5:39.13   |      108388      |     133825
       7  | 29:44.26 |    5:09.61   |      133826      |     157061
       8  | 34:54.12 |    5:41.68   |      157062      |     182704
       9  | 40:36.05 |    4:40.24   |      182705      |     203728
      10  | 45:16.29 |    5:33.66   |      203729      |     228769
      11  | 50:50.20 |    4:07.65   |      228770      |     247359
      12  | 54:58.10 |    4:52.62   |      247360      |     269321
      13  | 59:50.72 |    5:28.60   |      269322      |     293981
Характеристики диапазона извлечения и сообщения об ошибках
Выбранный диапазон
     Имя файла C:\Users\Алексей\Desktop\iPOD\Metallspuerhunde - Moloch.wav
     Пиковый уровень 100.0 %
     Качество диапазона 100.0 %
     CRC теста 9410605E
     CRC копии 9410605E
     Копирование... OK
Ошибок не произошло
AccurateRip: сводка
Трек  1  нет в базе данных
Трек  2  нет в базе данных
Трек  3  нет в базе данных
Трек  4  нет в базе данных
Трек  5  нет в базе данных
Трек  6  нет в базе данных
Трек  7  нет в базе данных
Трек  8  нет в базе данных
Трек  9  нет в базе данных
Трек 10  нет в базе данных
Трек 11  нет в базе данных
Трек 12  нет в базе данных
Трек 13  нет в базе данных
Ни одного трека нет в базе AccurateRip
Конец отчёта
Код:
Exact Audio Copy V0.99 prebeta 5 from 4. May 2009
Отчёт EAC об извлечении, выполненном 4. ноября 2011, 13:22
Metallspuerhunde / Remix Collection
Дисковод: TSSTcorpCDDVDW TS-L632H   Adapter: 0  ID: 0
Режим чтения                 : Достоверность
Использование точного потока : Да
Отключение кэша аудио        : Да
Использование указателей C2  : Нет
Коррекция смещения при чтении                     : 6
Способность читать области Lead-in и Lead-out     : Нет
Заполнение пропущенных сэмплов тишиной            : Да
Удаление блоков с тишиной в начале и конце        : Нет
При вычислениях CRC использовались нулевые сэмплы : Да
Интерфейс                                         : Встроенный Win32-интерфейс для Win NT/2000
Выходной формат          : Пользовательский кодировщик
Выбранный битрейт        : 1024 kBit/s
Качество                 : Высокий
Добавление ID3-тэга      : Нет
Утилита сжатия           : C:\Program Files\Exact Audio Copy\FLAC\FLAC.EXE
Дополнительные параметры : -6 -V -T "ARTIST=%a" -T "TITLE=%t" -T "ALBUM=%g" -T "DATE=%y" -T "TRACKNUMBER=%n" -T "GENRE=%m" -T "COMMENT=%e" %s -o %d
TOC извлечённого CD
     Трек |   Старт  | Длительность | Начальный сектор | Конечный сектор
    ---------------------------------------------------------------------
       1  |  0:00.00 |    5:43.53   |           0      |      25777
       2  |  5:43.53 |    4:57.56   |       25778      |      48108
       3  | 10:41.34 |    4:50.72   |       48109      |      69930
       4  | 15:32.31 |    4:41.33   |       69931      |      91038
       5  | 20:13.64 |    4:39.50   |       91039      |     112013
       6  | 24:53.39 |    4:20.08   |      112014      |     131521
       7  | 29:13.47 |    4:16.09   |      131522      |     150730
       8  | 33:29.56 |    4:41.60   |      150731      |     171865
       9  | 38:11.41 |    4:57.37   |      171866      |     194177
      10  | 43:09.03 |    4:49.23   |      194178      |     215875
      11  | 47:58.26 |    4:49.20   |      215876      |     237570
Характеристики диапазона извлечения и сообщения об ошибках
Выбранный диапазон
     Имя файла C:\Users\Алексей\Desktop\iPOD\Metallspuerhunde - Remix Collection.wav
     Пиковый уровень 100.0 %
     Качество диапазона 100.0 %
     CRC теста F2BB66C0
     CRC копии F2BB66C0
     Копирование... OK
Ошибок не произошло
AccurateRip: сводка
Трек  1  нет в базе данных
Трек  2  нет в базе данных
Трек  3  нет в базе данных
Трек  4  нет в базе данных
Трек  5  нет в базе данных
Трек  6  нет в базе данных
Трек  7  нет в базе данных
Трек  8  нет в базе данных
Трек  9  нет в базе данных
Трек 10  нет в базе данных
Трек 11  нет в базе данных
Ни одного трека нет в базе AccurateRip
Конец отчёта
Код:
REM GENRE "Electro Rock"
REM DATE 2011
REM DISCID CB0F4F0D
REM COMMENT "ExactAudioCopy v0.99pb5"
PERFORMER "Metallspuerhunde"
TITLE "Moloch"
FILE "Metallspuerhunde - Moloch.flac" WAVE
  TRACK 01 AUDIO
    TITLE "Alarm"
    PERFORMER "Metallspuerhunde"
    INDEX 01 00:00:00
  TRACK 02 AUDIO
    TITLE "Kein Herz"
    PERFORMER "Metallspuerhunde"
    INDEX 00 04:33:62
    INDEX 01 04:36:58
  TRACK 03 AUDIO
    TITLE "Es wird gestorben"
    PERFORMER "Metallspuerhunde"
    INDEX 00 09:32:25
    INDEX 01 09:35:61
  TRACK 04 AUDIO
    TITLE "Moloch"
    PERFORMER "Metallspuerhunde"
    INDEX 00 14:52:67
    INDEX 01 14:56:43
  TRACK 05 AUDIO
    TITLE "Synasthetische Magie"
    PERFORMER "Metallspuerhunde"
    INDEX 00 19:39:34
    INDEX 01 19:43:02
  TRACK 06 AUDIO
    TITLE "Gespenster"
    PERFORMER "Metallspuerhunde"
    INDEX 00 24:00:03
    INDEX 01 24:05:13
  TRACK 07 AUDIO
    TITLE "L'enfer"
    PERFORMER "Metallspuerhunde"
    INDEX 00 29:41:12
    INDEX 01 29:44:26
  TRACK 08 AUDIO
    TITLE "Es geht weiter"
    PERFORMER "Metallspuerhunde"
    INDEX 00 34:51:09
    INDEX 01 34:54:12
  TRACK 09 AUDIO
    TITLE "So Laut"
    PERFORMER "Metallspuerhunde"
    INDEX 00 40:32:68
    INDEX 01 40:36:05
  TRACK 10 AUDIO
    TITLE "Die Wand"
    PERFORMER "Metallspuerhunde"
    INDEX 00 45:14:14
    INDEX 01 45:16:29
  TRACK 11 AUDIO
    TITLE "Das Virus"
    PERFORMER "Metallspuerhunde"
    INDEX 00 50:46:51
    INDEX 01 50:50:20
  TRACK 12 AUDIO
    TITLE "Kranze"
    PERFORMER "Metallspuerhunde"
    INDEX 00 54:54:52
    INDEX 01 54:58:10
  TRACK 13 AUDIO
    TITLE "Das Pendel"
    PERFORMER "Metallspuerhunde"
    INDEX 00 59:47:69
    INDEX 01 59:50:72
Код:
REM GENRE "Electro Rock"
REM DATE 2011
REM DISCID 900C5F0B
REM COMMENT "ExactAudioCopy v0.99pb5"
PERFORMER "Metallspuerhunde"
TITLE "Remix Collection"
FILE "Metallspuerhunde - Remix Collection.flac" WAVE
  TRACK 01 AUDIO
    TITLE "Blut & Spiele (Remix by Kadaver Acht)"
    PERFORMER "Metallspuerhunde"
    INDEX 01 00:00:00
  TRACK 02 AUDIO
    TITLE "Blut & Spiele (Zerberus Remix by Noktis)"
    PERFORMER "Metallspuerhunde"
    INDEX 00 05:41:02
    INDEX 01 05:43:53
  TRACK 03 AUDIO
    TITLE "Obszone Neue Welt (Remix by Unmensch)"
    PERFORMER "Metallspuerhunde"
    INDEX 00 10:39:27
    INDEX 01 10:41:34
  TRACK 04 AUDIO
    TITLE "Obszone Neue Welt (Remix by Cyber S[?]ain't)"
    PERFORMER "Metallspuerhunde"
    INDEX 00 15:28:71
    INDEX 01 15:32:31
  TRACK 05 AUDIO
    TITLE "Obszone Neue Welt (Remix by Irrlicht)"
    PERFORMER "Metallspuerhunde"
    INDEX 00 20:11:43
    INDEX 01 20:13:64
  TRACK 06 AUDIO
    TITLE "Mach es wieder gut (Remix by Unmensch)"
    PERFORMER "Metallspuerhunde"
    INDEX 00 24:50:37
    INDEX 01 24:53:39
  TRACK 07 AUDIO
    TITLE "Wo gehst du hin? (Shizophobia's Power Cut Remix)"
    PERFORMER "Metallspuerhunde"
    INDEX 00 29:11:39
    INDEX 01 29:13:47
  TRACK 08 AUDIO
    TITLE "Ou Iras-Tu? (Remix by Kissin' Black)"
    PERFORMER "Metallspuerhunde"
    INDEX 00 33:26:66
    INDEX 01 33:29:56
  TRACK 09 AUDIO
    TITLE "Heuchler (Remix by Vhelena Projekt)"
    PERFORMER "Metallspuerhunde"
    INDEX 00 38:08:26
    INDEX 01 38:11:41
  TRACK 10 AUDIO
    TITLE "In deinem Bann (Remix by Soul in Sadness)"
    PERFORMER "Metallspuerhunde"
    INDEX 00 43:04:71
    INDEX 01 43:09:03
  TRACK 11 AUDIO
    TITLE "In deinem Bann (Remix by O.S.C.)"
    PERFORMER "Metallspuerhunde"
    INDEX 00 47:55:05
    INDEX 01 47:58:26
Код:
[url=https://fastpic.ru/view/32/2011/1220/c002c5310fd5602605f2bd3f3ca2bcb8.jpg.html][img]http://i32.fastpic.ru/thumb/2011/1220/b8/c002c5310fd5602605f2bd3f3ca2bcb8.jpeg[/img][/url][url=https://fastpic.ru/view/28/2011/1220/305bc8644a188f9cd42285ff9c3bfb11.jpg.html][img]http://i28.fastpic.ru/thumb/2011/1220/11/305bc8644a188f9cd42285ff9c3bfb11.jpeg[/img][/url][url=https://fastpic.ru/view/31/2011/1220/bc182b428edfce6b025c704a134768ee.jpg.html][img]http://i31.fastpic.ru/thumb/2011/1220/ee/bc182b428edfce6b025c704a134768ee.jpeg[/img][/url][url=https://fastpic.ru/view/28/2011/1220/6e636c324ac9d030526544fa72701baa.jpg.html][img]http://i28.fastpic.ru/thumb/2011/1220/aa/6e636c324ac9d030526544fa72701baa.jpeg[/img][/url]
[url=https://fastpic.ru/view/31/2011/1220/ac912cbb4e4b4bb76c333948b421200f.jpg.html][img]http://i31.fastpic.ru/thumb/2011/1220/0f/ac912cbb4e4b4bb76c333948b421200f.jpeg[/img][/url][url=https://fastpic.ru/view/29/2011/1220/0413253168d0e60dcea4fb54ef4f818e.jpg.html][img]http://i29.fastpic.ru/thumb/2011/1220/8e/0413253168d0e60dcea4fb54ef4f818e.jpeg[/img][/url][url=https://fastpic.ru/view/32/2011/1220/9eab401bcb7827a8cf49779d91ba106e.jpg.html][img]http://i32.fastpic.ru/thumb/2011/1220/6e/9eab401bcb7827a8cf49779d91ba106e.jpeg[/img][/url][url=https://fastpic.ru/view/27/2011/1220/a8f938ac637d401465856d70a4047baa.jpg.html][img]http://i27.fastpic.ru/thumb/2011/1220/aa/a8f938ac637d401465856d70a4047baa.jpeg[/img][/url]
Правила, инструкции, FAQ!!!
Торрент  Добавлен [26 июн 2020, 20:21] Скачать торрент Магнет ссылка
Скачать торрент
[ Размер 21.47 КБ / Просмотров 18 ]

Статус
Проверен 
 
Размер  980.73 МБ
Приватный: Нет (DHT включён)
.torrent скачан  0
 


     Отправить личное сообщение
   
Страница 1 из 1
Показать сообщения за:  Поле сортировки  
Начать новую тему Ответить на тему


Сейчас этот форум просматривают: нет зарегистрированных пользователей и гости: 0


Вы не можете начинать темы
Вы не можете отвечать на сообщения
Вы не можете редактировать свои сообщения
Вы не можете удалять свои сообщения
Вы не можете добавлять вложения

Перейти:  
cron