Начать новую тему Ответить на тему
Статистика раздачи
Размер: 520.61 МБ | Добавлен: 26 июн 2020, 19:52 | Скачали: 0
Сидеров: 0  [0 байт/сек]    Личеров: 0  [0 байт/сек]
Пред. тема | След. тема 

Автор
Сообщение

СообщениеДобавлено: 26 июн 2020, 19:52 

Ответить с цитатой 

X-Marks The Pedwalk / The Sun, The Cold And My Underwater Fear

Жанр: Electro, EBM, Experimental
Страна-производитель диска: Germany
Год издания: 2012
Издатель / лейбл: Infacted Recordings
Номер по каталогу: FACT 3180
Формат издания: CD, Album
База данных Discogs: релиз
Страна: Germany
Аудиокодек: FLAC (*.flac)
Тип рипа: image+.cue (secure, test & copy)
Битрейт аудио: lossless
Продолжительность: 1:07:45.17
Источник: Личная коллекция
Наличие сканов в содержимом раздачи: Да (600 dpi, .jpg)
Треклист:
01. You Are Gone 5:54
02. Don't Lie To Me 8:07
03. The Day I Start To Die 5:46
04. The Side Of The Wrong 5:41
05. Nightfall 4:02
06. The Sun, The Cold, My Underwater Fear 4:42
07. Fallen Angel 5:07
08. Electric Summer 4:43
09. Tormented Skin 2:33
10. No! 5:43
11. Run! Run! Mary! 4:30
12. Mkk.2 8:09
13. A.I.C.S.I.N 2:43
Код:
Exact Audio Copy V1.0 beta 3 from 29. August 2011
Отчёт EAC об извлечении, выполненном 16. октября 2012, 9:53
X-Marks The Pedwalk / The Sun The Cold And My Underwater Fear
Дисковод: hp      DVD-RAM UJ8B1   Adapter: 0  ID: 2
Режим чтения                 : Достоверность
Использование точного потока : Да
Отключение кэша аудио        : Да
Использование указателей C2  : Нет
Коррекция смещения при чтении                     : 6
Способность читать области Lead-in и Lead-out     : Нет
Заполнение пропущенных сэмплов тишиной            : Да
Удаление блоков с тишиной в начале и конце        : Нет
При вычислениях CRC использовались нулевые сэмплы : Да
Интерфейс                                         : Встроенный Win32-интерфейс для Win NT/2000
Выходной формат          : Пользовательский кодировщик
Выбранный битрейт        : 1024 kBit/s
Качество                 : Высокий
Добавление ID3-тега      : Нет
Утилита сжатия           : C:\Program Files (x86)\Exact Audio Copy\FLAC\FLAC.EXE
Дополнительные параметры : -V -8 -T "Date=%year%" -T "Genre=%genre%" %source%
TOC извлечённого CD
     Трек |   Старт  | Длительность | Начальный сектор | Конечный сектор
    ---------------------------------------------------------------------
       1  |  0:00.00 |    5:54.02   |           0      |      26551
       2  |  5:54.02 |    8:07.25   |       26552      |      63101
       3  | 14:01.27 |    5:46.39   |       63102      |      89090
       4  | 19:47.66 |    5:41.52   |       89091      |     114717
       5  | 25:29.43 |    4:02.00   |      114718      |     132867
       6  | 29:31.43 |    4:42.21   |      132868      |     154038
       7  | 34:13.64 |    5:07.73   |      154039      |     177136
       8  | 39:21.62 |    4:43.50   |      177137      |     198411
       9  | 44:05.37 |    2:33.32   |      198412      |     209918
      10  | 46:38.69 |    5:43.25   |      209919      |     235668
      11  | 52:22.19 |    4:30.18   |      235669      |     255936
      12  | 56:52.37 |    8:09.12   |      255937      |     292623
      13  | 65:01.49 |    2:43.43   |      292624      |     304891
Характеристики диапазона извлечения и сообщения об ошибках
Выбранный диапазон
     Имя файла C:\Users\HP\Music\X-Marks The Pedwalk - The Sun The Cold And My Underwater Fear.wav
     Пиковый уровень 100.0 %
     Скорость извлечения 4.9 X
     Качество диапазона 100.0 %
     CRC теста 057B5634
     CRC копии 057B5634
     Копирование... OK
Ошибок не произошло
AccurateRip: сводка
Трек  1  отсутствует в базе данных
Трек  2  отсутствует в базе данных
Трек  3  отсутствует в базе данных
Трек  4  отсутствует в базе данных
Трек  5  отсутствует в базе данных
Трек  6  отсутствует в базе данных
Трек  7  отсутствует в базе данных
Трек  8  отсутствует в базе данных
Трек  9  отсутствует в базе данных
Трек 10  отсутствует в базе данных
Трек 11  отсутствует в базе данных
Трек 12  отсутствует в базе данных
Трек 13  отсутствует в базе данных
Ни одного трека нет в базе AccurateRip
Конец отчёта
==== Контрольная сумма отчёта 51F2821E35FB2C676717EAD40028B565EA823753617F5F567913E814927E2C3F ====
Код:
REM GENRE Electro
REM DATE 2012
REM DISCID AC0FE10D
REM COMMENT "ExactAudioCopy v1.0b3"
PERFORMER "X-Marks The Pedwalk"
TITLE "The Sun The Cold And My Underwater Fear"
FILE "X-Marks The Pedwalk - The Sun The Cold And My Underwater Fear.flac" WAVE
  TRACK 01 AUDIO
    TITLE "You Are Gone"
    PERFORMER "X-Marks The Pedwalk"
    INDEX 01 00:00:00
  TRACK 02 AUDIO
    TITLE "Don't Lie To Me"
    PERFORMER "X-Marks The Pedwalk"
    INDEX 01 05:54:02
  TRACK 03 AUDIO
    TITLE "The Day I Start To Die"
    PERFORMER "X-Marks The Pedwalk"
    INDEX 01 14:01:27
  TRACK 04 AUDIO
    TITLE "The Side Of The Wrong"
    PERFORMER "X-Marks The Pedwalk"
    INDEX 01 19:47:66
  TRACK 05 AUDIO
    TITLE "Nightfall"
    PERFORMER "X-Marks The Pedwalk"
    INDEX 01 25:29:43
  TRACK 06 AUDIO
    TITLE "The Sun The Cold And My Underwater Fear"
    PERFORMER "X-Marks The Pedwalk"
    INDEX 01 29:31:43
  TRACK 07 AUDIO
    TITLE "Fallen Angel"
    PERFORMER "X-Marks The Pedwalk"
    INDEX 01 34:13:64
  TRACK 08 AUDIO
    TITLE "Electric Summer"
    PERFORMER "X-Marks The Pedwalk"
    INDEX 01 39:21:62
  TRACK 09 AUDIO
    TITLE "Tormented Skin"
    PERFORMER "X-Marks The Pedwalk"
    INDEX 01 44:05:37
  TRACK 10 AUDIO
    TITLE "No!"
    PERFORMER "X-Marks The Pedwalk"
    INDEX 01 46:38:69
  TRACK 11 AUDIO
    TITLE "Run! Run! Mary!"
    PERFORMER "X-Marks The Pedwalk"
    INDEX 01 52:22:19
  TRACK 12 AUDIO
    TITLE "MKK.2"
    PERFORMER "X-Marks The Pedwalk"
    INDEX 01 56:52:37
  TRACK 13 AUDIO
    TITLE "A.I.C.S.I.N"
    PERFORMER "X-Marks The Pedwalk"
    INDEX 01 65:01:49
Правила, инструкции, FAQ!!!
Торрент  Добавлен [26 июн 2020, 19:52] Скачать торрент Магнет ссылка
Скачать торрент
[ Размер 11.68 КБ / Просмотров 9 ]

Статус
Проверен 
 
Размер  520.61 МБ
Приватный: Нет (DHT включён)
.torrent скачан  0
 


     Отправить личное сообщение
   
Страница 1 из 1
Показать сообщения за:  Поле сортировки  
Начать новую тему Ответить на тему


Сейчас этот форум просматривают: нет зарегистрированных пользователей и гости: 0


Вы не можете начинать темы
Вы не можете отвечать на сообщения
Вы не можете редактировать свои сообщения
Вы не можете удалять свои сообщения
Вы не можете добавлять вложения

Перейти:  
cron