Начать новую тему Ответить на тему
Статистика раздачи
Размер: 540.34 МБ | Добавлен: 26 июн 2020, 17:10 | Скачали: 0
Сидеров: 0  [0 байт/сек]    Личеров: 0  [0 байт/сек]
Пред. тема | След. тема 

Автор
Сообщение

СообщениеДобавлено: 26 июн 2020, 17:10 

Ответить с цитатой 

Dolls Of Pain - Dec[a]dance
Жанр: Electro / EBM
Год выпуска диска: 2007
Производитель диска: Великобритания
Аудио кодек: FLAC
Тип рипа: image+.cue
Битрейт аудио: lossless
Продолжительность: 68:43
Трэклист:
1 Bring Me Some Flesh
2 Inside
3 New God
4 Forgotten Dream
5 Why?
6 Donjon
7 Resigne
8 Sworn Enemy
9 Into My Head
10 Join Pain
11 Electrolude
12 Dominer - BakXIII Remix
13 Dominer - Bran Terror Concept
14 Dominer - A Cold Night Mix (by Mesmer's Eyes)
Доп. информация:
Код:
Exact Audio Copy V0.99 prebeta 4 from 23. January 2008
Отчёт EAC об извлечении, выполненном 15. апреля 2010, 13:55
Dolls Of Pain / Dec[a]dance
Дисковод: PIONEER DVD-RW  DVR-110D   Adapter: 0  ID: 1
Режим чтения                 : Достоверность
Использование точного потока : Да
Отключение кэша аудио        : Да
Использование указателей C2  : Нет
Коррекция смещения при чтении                     : 48
Способность читать области Lead-in и Lead-out     : Да
Заполнение пропущенных сэмплов тишиной            : Да
Удаление блоков с тишиной в начале и конце        : Нет
При вычислениях CRC использовались нулевые сэмплы : Да
Интерфейс                                         : Установленный внешний ASPI-интерфейс
Выходной формат          : Пользовательский кодировщик
Выбранный битрейт        : 768 kBit/s
Качество                 : Высокий
Добавление ID3-тэга      : Нет
Утилита сжатия           : C:\Program Files\Exact Audio Copy\FLAC\FLAC.EXE
Дополнительные параметры : -6 -V -T "ARTIST=%a" -T "TITLE=%t" -T "ALBUM=%g" -T "DATE=%y" -T "TRACKNUMBER=%n" -T "GENRE=%m" -T "COMMENT=%e" %s -o %d
TOC извлечённого CD
     Трек |   Старт  | Длительность | Начальный сектор | Конечный сектор
    ---------------------------------------------------------------------
       1  |  0:00.00 |    3:53.42   |           0      |      17516
       2  |  3:53.42 |    4:54.40   |       17517      |      39606
       3  |  8:48.07 |    5:52.31   |       39607      |      66037
       4  | 14:40.38 |    4:36.28   |       66038      |      86765
       5  | 19:16.66 |    5:26.50   |       86766      |     111265
       6  | 24:43.41 |    2:03.74   |      111266      |     120564
       7  | 26:47.40 |    4:54.73   |      120565      |     142687
       8  | 31:42.38 |    5:52.39   |      142688      |     169126
       9  | 37:35.02 |    4:49.06   |      169127      |     190807
      10  | 42:24.08 |    5:52.60   |      190808      |     217267
      11  | 48:16.68 |    3:52.32   |      217268      |     234699
      12  | 52:09.25 |    5:20.60   |      234700      |     258759
      13  | 57:30.10 |    5:02.40   |      258760      |     281449
      14  | 62:32.50 |    6:10.27   |      281450      |     309226
Характеристики диапазона извлечения и сообщения об ошибках
Выбранный диапазон
     Имя файла D:\мои документы\music\DollsOfPain97\Dolls Of Pain - Dec[a]dance\Dolls Of Pain - Dec[a]dance.wav
     Пиковый уровень 98.8 %
     Качество диапазона 100.0 %
     CRC копии D3A3BAB2
     Копирование... OK
Ошибок не произошло
AccurateRip: сводка
Трек  1  нет в базе данных
Трек  2  нет в базе данных
Трек  3  нет в базе данных
Трек  4  нет в базе данных
Трек  5  нет в базе данных
Трек  6  нет в базе данных
Трек  7  нет в базе данных
Трек  8  нет в базе данных
Трек  9  нет в базе данных
Трек 10  нет в базе данных
Трек 11  нет в базе данных
Трек 12  нет в базе данных
Трек 13  нет в базе данных
Трек 14  нет в базе данных
Ни одного трека нет в базе AccurateRip
Конец отчёта
PS Переиздание альбома 2006-го года.
Правила, инструкции, FAQ!!!
Торрент  Добавлен [26 июн 2020, 17:10] Скачать торрент Магнет ссылка
Скачать торрент
[ Размер 11.33 КБ / Просмотров 3 ]

Статус
Проверен 
 
Размер  540.34 МБ
Приватный: Нет (DHT включён)
.torrent скачан  0
 


     Отправить личное сообщение
   
Страница 1 из 1
Показать сообщения за:  Поле сортировки  
Начать новую тему Ответить на тему


Сейчас этот форум просматривают: нет зарегистрированных пользователей и гости: 0


Вы не можете начинать темы
Вы не можете отвечать на сообщения
Вы не можете редактировать свои сообщения
Вы не можете удалять свои сообщения
Вы не можете добавлять вложения

Перейти:  
cron