Начать новую тему Ответить на тему
Статистика раздачи
Размер: 551.35 МБ | Добавлен: 26 июн 2020, 17:18 | Скачали: 0
Сидеров: 0  [0 байт/сек]    Личеров: 0  [0 байт/сек]
Пред. тема | След. тема 

Автор
Сообщение

СообщениеДобавлено: 26 июн 2020, 17:18 

Ответить с цитатой 

Binary Park / Worlds Collide
Жанр: Electro, EBM
Страна-производитель диска: Germany
Год издания диска: 2011
Издатель (лейбл): Infacted Recordings
Номер по каталогу: FACT 3164
Страна: Germany/England
Аудиокодек: FLAC (*.flac)
Тип рипа: image+.cue
Битрейт аудио: lossless
Продолжительность: 1:10:50.23
Источник (релизер): CD из личной коллекции.
Наличие сканов в содержимом раздачи: да
Треклист:
01. Main Reset 2:30
02. Welcome Home 5:23
03. Wiretripped 6:05
04. Silence is Speaking 4:31
05. Cropper 3:56
06. Fight Son 6:15
07. Human Disease 4:42
08. System Sucks 5:55
09. Running 4:40
10. Worlds Collide 4:20
11. Voice of the Gun 5:28
12. My Angel 5:09
13. Speed of Blood 5:05
14. Dark City 5:49
Discogs
Рецензия
Код:
Exact Audio Copy V0.99 prebeta 5 from 4. May 2009
Отчёт EAC об извлечении, выполненном 29. мая 2011, 8:31
Binary Park / Worlds Collide
Дисковод: TSSTcorpCDDVDW TS-L632H   Adapter: 0  ID: 0
Режим чтения                 : Достоверность
Использование точного потока : Да
Отключение кэша аудио        : Да
Использование указателей C2  : Нет
Коррекция смещения при чтении                     : 6
Способность читать области Lead-in и Lead-out     : Нет
Заполнение пропущенных сэмплов тишиной            : Да
Удаление блоков с тишиной в начале и конце        : Нет
При вычислениях CRC использовались нулевые сэмплы : Да
Интерфейс                                         : Встроенный Win32-интерфейс для Win NT/2000
Выходной формат          : Пользовательский кодировщик
Выбранный битрейт        : 1024 kBit/s
Качество                 : Высокий
Добавление ID3-тэга      : Нет
Утилита сжатия           : C:\Program Files\Exact Audio Copy\FLAC\FLAC.EXE
Дополнительные параметры : -6 -V -T "ARTIST=%a" -T "TITLE=%t" -T "ALBUM=%g" -T "DATE=%y" -T "TRACKNUMBER=%n" -T "GENRE=%m" -T "COMMENT=%e" %s -o %d
TOC извлечённого CD
     Трек |   Старт  | Длительность | Начальный сектор | Конечный сектор
    ---------------------------------------------------------------------
       1  |  0:00.00 |    2:33.37   |           0      |      11511
       2  |  2:33.37 |    5:30.00   |       11512      |      36261
       3  |  8:03.37 |    6:10.18   |       36262      |      64029
       4  | 14:13.55 |    4:33.65   |       64030      |      84569
       5  | 18:47.45 |    3:58.28   |       84570      |     102447
       6  | 22:45.73 |    6:17.65   |      102448      |     130787
       7  | 29:03.63 |    4:43.56   |      130788      |     152068
       8  | 33:47.44 |    5:57.28   |      152069      |     178871
       9  | 39:44.72 |    4:42.56   |      178872      |     200077
      10  | 44:27.53 |    4:16.46   |      200078      |     219323
      11  | 48:44.24 |    5:30.28   |      219324      |     244101
      12  | 54:14.52 |    5:12.00   |      244102      |     267501
      13  | 59:26.52 |    5:33.28   |      267502      |     292504
      14  | 65:00.05 |    5:50.18   |      292505      |     318772
Характеристики диапазона извлечения и сообщения об ошибках
Выбранный диапазон
     Имя файла C:\Users\Алексей\Desktop\iPOD\Binary Park - Worlds Collide.wav
     Пиковый уровень 100.0 %
     Качество диапазона 100.0 %
     CRC теста 21674B5D
     CRC копии 21674B5D
     Копирование... OK
Ошибок не произошло
AccurateRip: сводка
Трек  1  нет в базе данных
Трек  2  нет в базе данных
Трек  3  нет в базе данных
Трек  4  нет в базе данных
Трек  5  нет в базе данных
Трек  6  нет в базе данных
Трек  7  нет в базе данных
Трек  8  нет в базе данных
Трек  9  нет в базе данных
Трек 10  нет в базе данных
Трек 11  нет в базе данных
Трек 12  нет в базе данных
Трек 13  нет в базе данных
Трек 14  нет в базе данных
Ни одного трека нет в базе AccurateRip
Конец отчёта
Код:
REM GENRE Futurepop
REM DATE 2011
REM DISCID DD109A0E
REM COMMENT "ExactAudioCopy v0.99pb5"
PERFORMER "Binary Park"
TITLE "Worlds Collide"
FILE "Binary Park - Worlds Collide.flac" WAVE
  TRACK 01 AUDIO
    TITLE "Main Reset"
    PERFORMER "Binary Park"
    INDEX 01 00:00:00
  TRACK 02 AUDIO
    TITLE "Welcome Home"
    PERFORMER "Binary Park"
    INDEX 00 02:31:37
    INDEX 01 02:33:37
  TRACK 03 AUDIO
    TITLE "Wiretripped"
    PERFORMER "Binary Park"
    INDEX 00 08:01:37
    INDEX 01 08:03:37
  TRACK 04 AUDIO
    TITLE "Silence is Speaking"
    PERFORMER "Binary Park"
    INDEX 00 14:11:55
    INDEX 01 14:13:55
  TRACK 05 AUDIO
    TITLE "Cropper"
    PERFORMER "Binary Park"
    INDEX 00 18:45:45
    INDEX 01 18:47:45
  TRACK 06 AUDIO
    TITLE "Fight Son"
    PERFORMER "Binary Park"
    INDEX 00 22:43:73
    INDEX 01 22:45:73
  TRACK 07 AUDIO
    TITLE "Human Disease"
    PERFORMER "Binary Park"
    INDEX 00 29:01:63
    INDEX 01 29:03:63
  TRACK 08 AUDIO
    TITLE "System Sucks"
    PERFORMER "Binary Park"
    INDEX 00 33:45:44
    INDEX 01 33:47:44
  TRACK 09 AUDIO
    TITLE "Running"
    PERFORMER "Binary Park"
    INDEX 00 39:42:72
    INDEX 01 39:44:72
  TRACK 10 AUDIO
    TITLE "Worlds Collide"
    PERFORMER "Binary Park"
    INDEX 00 44:25:53
    INDEX 01 44:27:53
  TRACK 11 AUDIO
    TITLE "Voice of the Gun"
    PERFORMER "Binary Park"
    INDEX 00 48:42:24
    INDEX 01 48:44:24
  TRACK 12 AUDIO
    TITLE "My Angel"
    PERFORMER "Binary Park"
    INDEX 00 54:12:52
    INDEX 01 54:14:52
  TRACK 13 AUDIO
    TITLE "Speed of Blood"
    PERFORMER "Binary Park"
    INDEX 00 59:24:52
    INDEX 01 59:26:52
  TRACK 14 AUDIO
    TITLE "Dark City"
    PERFORMER "Binary Park"
    INDEX 00 64:58:05
    INDEX 01 65:00:05
Код:
[url=https://fastpic.ru/view/23/2011/0612/b72e943dd2603fed9befc3d0e92b20ed.jpg.html][img]http://i23.fastpic.ru/thumb/2011/0612/ed/b72e943dd2603fed9befc3d0e92b20ed.jpeg[/img][/url][url=https://fastpic.ru/view/23/2011/0612/614fc0f8c328194d008695ba323147bc.jpg.html][img]http://i23.fastpic.ru/thumb/2011/0612/bc/614fc0f8c328194d008695ba323147bc.jpeg[/img][/url][url=https://fastpic.ru/view/23/2011/0612/9612b4a68f67593a0bdfdcc1192f5fc8.jpg.html][img]http://i23.fastpic.ru/thumb/2011/0612/c8/9612b4a68f67593a0bdfdcc1192f5fc8.jpeg[/img][/url][url=https://fastpic.ru/view/23/2011/0612/8b1b93354b9a7cc9ff348c5540ab34d1.jpg.html][img]http://i23.fastpic.ru/thumb/2011/0612/d1/8b1b93354b9a7cc9ff348c5540ab34d1.jpeg[/img][/url]
Выражаю благодарность kergarn`у за HQ scans!
Правила, инструкции, FAQ!!!
Торрент  Добавлен [26 июн 2020, 17:18] Скачать торрент Магнет ссылка
Скачать торрент
[ Размер 11.97 КБ / Просмотров 8 ]

Статус
Проверен 
 
Размер  551.35 МБ
Приватный: Нет (DHT включён)
.torrent скачан  0
 


     Отправить личное сообщение
   
Страница 1 из 1
Показать сообщения за:  Поле сортировки  
Начать новую тему Ответить на тему


Сейчас этот форум просматривают: нет зарегистрированных пользователей и гости: 0


Вы не можете начинать темы
Вы не можете отвечать на сообщения
Вы не можете редактировать свои сообщения
Вы не можете удалять свои сообщения
Вы не можете добавлять вложения

Перейти:  
cron