Начать новую тему Ответить на тему
Статистика раздачи
Размер: 1.01 ГБ | Добавлен: 26 июн 2020, 20:15 | Скачали: 0
Сидеров: 0  [0 байт/сек]    Личеров: 0  [0 байт/сек]
Пред. тема | След. тема 

Автор
Сообщение

СообщениеДобавлено: 26 июн 2020, 20:15 

Ответить с цитатой 

Aiboforcen / Dedale

Жанр: Electro, EBM
Страна-производитель диска: Belgium
Год издания: 2011
Издатель / лейбл: Alfa Matrix
Номер по каталогу: AM2133DCD
Формат издания: 2CD, Album, Limited Edition Box
База данных Discogs: релиз
Страна: Belgium
Аудиокодек: FLAC (*.flac)
Тип рипа: image+.cue (secure, test & copy)
Битрейт аудио: lossless
Продолжительность: 1:13:56.37 + 1:09:46.10
Источник: 2CD Box из личной коллекции
Наличие сканов в содержимом раздачи: Да (600 dpi, jpg)
CD 1 - Dedale
01. Dedale 4:43
02. Everything Gets Sacrificed (feat. Ayria) 4:31
03. Shadows 5:27
04. Time & Space 5:11
05. Light 3:45
06. Poem Of Life (feat. Leaether Strip) 5:36
07. Sordide Sentimental 2:36
08. Lhassa 5:09
09. The World Below (feat. Ego Likeness) 4:58
10. New Year's Day (feat. Ayria) 4:57
11. Crysis 5:24
12. Mass 4:58
13. Rhythm Of Light (feat. Diffuzion) 5:50
14. Parasthesia (feat. amGod) 6:42
15. Meandres 4:10
CD 2 - Sanctuaire
01. Sanctuaire 5:09
02. Blood In Your Face (feat. Acylum) 3:15
03. Not Unique (Via Dolorosa Version) 5:30
04. Light (Essence Of Mind Mix) 5:08
05. Shadows (The Synthetic Dream Foundation Mix) 4:07
06. What's A Fetiche Darling 3:47
07. Crysis (Psy'Aviah Mix) 4:53
08. Wrapped In Plastic (feat. Implant) 5:35
09. Dedale (Acretongue Mix) 4:56
10. Shadows (Regenerator Mix) 5:27
11. Twilight World (Revisted) 3:44
12. Crysis (Kant Kino Mix) 4:35
13. Dedale (Celluloide Mix) 5:09
14. Running With The Wrong Boys (feat. Leaether Strip) 4:43
15. Shadows (Beati Mortui Mix) 3:49
Код:
Exact Audio Copy V1.0 beta 3 from 29. August 2011
Отчёт EAC об извлечении, выполненном 26. августа 2012, 12:19
Aiboforcen / Dedale
Дисковод: hp      DVD-RAM UJ8B1   Adapter: 0  ID: 2
Режим чтения                 : Достоверность
Использование точного потока : Да
Отключение кэша аудио        : Да
Использование указателей C2  : Нет
Коррекция смещения при чтении                     : 6
Способность читать области Lead-in и Lead-out     : Нет
Заполнение пропущенных сэмплов тишиной            : Да
Удаление блоков с тишиной в начале и конце        : Нет
При вычислениях CRC использовались нулевые сэмплы : Да
Интерфейс                                         : Встроенный Win32-интерфейс для Win NT/2000
Выходной формат          : Пользовательский кодировщик
Выбранный битрейт        : 1024 kBit/s
Качество                 : Высокий
Добавление ID3-тега      : Нет
Утилита сжатия           : C:\Program Files (x86)\Exact Audio Copy\FLAC\FLAC.EXE
Дополнительные параметры : -V -8 -T "Date=%year%" -T "Genre=%genre%" %source%
TOC извлечённого CD
     Трек |   Старт  | Длительность | Начальный сектор | Конечный сектор
    ---------------------------------------------------------------------
       1  |  0:00.00 |    4:42.60   |           0      |      21209
       2  |  4:42.60 |    4:30.60   |       21210      |      41519
       3  |  9:13.45 |    5:26.42   |       41520      |      66011
       4  | 14:40.12 |    5:10.72   |       66012      |      89333
       5  | 19:51.09 |    3:45.35   |       89334      |     106243
       6  | 23:36.44 |    5:36.20   |      106244      |     131463
       7  | 29:12.64 |    2:36.23   |      131464      |     143186
       8  | 31:49.12 |    5:08.74   |      143187      |     166360
       9  | 36:58.11 |    4:57.58   |      166361      |     188693
      10  | 41:55.69 |    4:57.28   |      188694      |     210996
      11  | 46:53.22 |    5:23.51   |      210997      |     235272
      12  | 52:16.73 |    4:57.47   |      235273      |     257594
      13  | 57:14.45 |    5:49.62   |      257595      |     283831
      14  | 63:04.32 |    6:41.70   |      283832      |     313976
      15  | 69:46.27 |    4:10.10   |      313977      |     332736
Характеристики диапазона извлечения и сообщения об ошибках
Выбранный диапазон
     Имя файла C:\Users\HP\Music\Aiboforcen - Dedale.wav
     Пиковый уровень 99.7 %
     Скорость извлечения 3.0 X
     Качество диапазона 99.9 %
     CRC теста 80F3B4D4
     CRC копии 80F3B4D4
     Копирование... OK
Ошибок не произошло
AccurateRip: сводка
Трек  1  отсутствует в базе данных
Трек  2  отсутствует в базе данных
Трек  3  отсутствует в базе данных
Трек  4  отсутствует в базе данных
Трек  5  отсутствует в базе данных
Трек  6  отсутствует в базе данных
Трек  7  отсутствует в базе данных
Трек  8  отсутствует в базе данных
Трек  9  отсутствует в базе данных
Трек 10  отсутствует в базе данных
Трек 11  отсутствует в базе данных
Трек 12  отсутствует в базе данных
Трек 13  отсутствует в базе данных
Трек 14  отсутствует в базе данных
Трек 15  отсутствует в базе данных
Ни одного трека нет в базе AccurateRip
Конец отчёта
==== Контрольная сумма отчёта 0562A1E8CFF3FCCF9CAF762B7AB7B3EFE3BC414199C970885773AFB344032F1F ====
Код:
Exact Audio Copy V1.0 beta 3 from 29. August 2011
Отчёт EAC об извлечении, выполненном 26. августа 2012, 13:38
Aiboforcen / Sanctuaire
Дисковод: hp      DVD-RAM UJ8B1   Adapter: 0  ID: 2
Режим чтения                 : Достоверность
Использование точного потока : Да
Отключение кэша аудио        : Да
Использование указателей C2  : Нет
Коррекция смещения при чтении                     : 6
Способность читать области Lead-in и Lead-out     : Нет
Заполнение пропущенных сэмплов тишиной            : Да
Удаление блоков с тишиной в начале и конце        : Нет
При вычислениях CRC использовались нулевые сэмплы : Да
Интерфейс                                         : Встроенный Win32-интерфейс для Win NT/2000
Выходной формат          : Пользовательский кодировщик
Выбранный битрейт        : 1024 kBit/s
Качество                 : Высокий
Добавление ID3-тега      : Нет
Утилита сжатия           : C:\Program Files (x86)\Exact Audio Copy\FLAC\FLAC.EXE
Дополнительные параметры : -V -8 -T "Date=%year%" -T "Genre=%genre%" %source%
TOC извлечённого CD
     Трек |   Старт  | Длительность | Начальный сектор | Конечный сектор
    ---------------------------------------------------------------------
       1  |  0:00.00 |    5:09.25   |           0      |      23199
       2  |  5:09.25 |    3:14.54   |       23200      |      37803
       3  |  8:24.04 |    5:30.17   |       37804      |      62570
       4  | 13:54.21 |    5:07.72   |       62571      |      85667
       5  | 19:02.18 |    4:06.53   |       85668      |     104170
       6  | 23:08.71 |    3:46.46   |      104171      |     121166
       7  | 26:55.42 |    4:52.63   |      121167      |     143129
       8  | 31:48.30 |    5:34.67   |      143130      |     168246
       9  | 37:23.22 |    4:55.44   |      168247      |     190415
      10  | 42:18.66 |    5:27.25   |      190416      |     214965
      11  | 47:46.16 |    3:44.00   |      214966      |     231765
      12  | 51:30.16 |    4:34.55   |      231766      |     252370
      13  | 56:04.71 |    5:09.25   |      252371      |     275570
      14  | 61:14.21 |    4:42.72   |      275571      |     296792
      15  | 65:57.18 |    3:48.67   |      296793      |     313959
Характеристики диапазона извлечения и сообщения об ошибках
Выбранный диапазон
     Имя файла C:\Users\HP\Music\Aiboforcen - Sanctuaire.wav
     Пиковый уровень 99.7 %
     Скорость извлечения 4.7 X
     Качество диапазона 100.0 %
     CRC теста 26BC9496
     CRC копии 26BC9496
     Копирование... OK
Ошибок не произошло
AccurateRip: сводка
Трек  1  отсутствует в базе данных
Трек  2  отсутствует в базе данных
Трек  3  отсутствует в базе данных
Трек  4  отсутствует в базе данных
Трек  5  отсутствует в базе данных
Трек  6  отсутствует в базе данных
Трек  7  отсутствует в базе данных
Трек  8  отсутствует в базе данных
Трек  9  отсутствует в базе данных
Трек 10  отсутствует в базе данных
Трек 11  отсутствует в базе данных
Трек 12  отсутствует в базе данных
Трек 13  отсутствует в базе данных
Трек 14  отсутствует в базе данных
Трек 15  отсутствует в базе данных
Ни одного трека нет в базе AccurateRip
Конец отчёта
==== Контрольная сумма отчёта 8CD7F4880277FA8E112B73D7596D356A13EB4E95902D18C07146DFF538B4DED8 ====
Код:
REM GENRE Electro
REM DATE 2011
REM DISCID DB11540F
REM COMMENT "ExactAudioCopy v1.0b3"
PERFORMER "Aiboforcen"
TITLE "Dedale"
FILE "Aiboforcen - Dedale.flac" WAVE
  TRACK 01 AUDIO
    TITLE "Dedale"
    PERFORMER "Aiboforcen"
    INDEX 01 00:00:00
  TRACK 02 AUDIO
    TITLE "Everything Gets Sacrificed (feat. Ayria)"
    PERFORMER "Aiboforcen"
    INDEX 01 04:42:60
  TRACK 03 AUDIO
    TITLE "Shadows"
    PERFORMER "Aiboforcen"
    INDEX 01 09:13:45
  TRACK 04 AUDIO
    TITLE "Time & Space"
    PERFORMER "Aiboforcen"
    INDEX 01 14:40:12
  TRACK 05 AUDIO
    TITLE "Light"
    PERFORMER "Aiboforcen"
    INDEX 01 19:51:09
  TRACK 06 AUDIO
    TITLE "Poem Of Life (feat. Leaether Strip)"
    PERFORMER "Aiboforcen"
    INDEX 01 23:36:44
  TRACK 07 AUDIO
    TITLE "Sordide Sentimental"
    PERFORMER "Aiboforcen"
    INDEX 01 29:12:64
  TRACK 08 AUDIO
    TITLE "Lhassa"
    PERFORMER "Aiboforcen"
    INDEX 01 31:49:12
  TRACK 09 AUDIO
    TITLE "The World Below (feat. Ego Likeness)"
    PERFORMER "Aiboforcen"
    INDEX 01 36:58:11
  TRACK 10 AUDIO
    TITLE "New Year's Day (feat. Ayria)"
    PERFORMER "Aiboforcen"
    INDEX 01 41:55:69
  TRACK 11 AUDIO
    TITLE "Crysis"
    PERFORMER "Aiboforcen"
    INDEX 01 46:53:22
  TRACK 12 AUDIO
    TITLE "Mass"
    PERFORMER "Aiboforcen"
    INDEX 01 52:16:73
  TRACK 13 AUDIO
    TITLE "Rhythm Of Light (feat. Diffuzion)"
    PERFORMER "Aiboforcen"
    INDEX 01 57:14:45
  TRACK 14 AUDIO
    TITLE "Parasthesia (feat. amGod)"
    PERFORMER "Aiboforcen"
    INDEX 01 63:04:32
  TRACK 15 AUDIO
    TITLE "Meandres"
    PERFORMER "Aiboforcen"
    INDEX 01 69:46:27
Код:
REM GENRE Electro
REM DATE 2011
REM DISCID D4105A0F
REM COMMENT "ExactAudioCopy v1.0b3"
PERFORMER "Aiboforcen"
TITLE "Sanctuaire"
FILE "Aiboforcen - Sanctuaire.flac" WAVE
  TRACK 01 AUDIO
    TITLE "Sanctuaire"
    PERFORMER "Aiboforcen"
    INDEX 01 00:00:00
  TRACK 02 AUDIO
    TITLE "Blood In Your Face (feat. Acylum)"
    PERFORMER "Aiboforcen"
    INDEX 01 05:09:25
  TRACK 03 AUDIO
    TITLE "Not Unique (Via Dolorosa Version)"
    PERFORMER "Aiboforcen"
    INDEX 01 08:24:04
  TRACK 04 AUDIO
    TITLE "Light (Essence Of Mind Mix)"
    PERFORMER "Aiboforcen"
    INDEX 01 13:54:21
  TRACK 05 AUDIO
    TITLE "Shadows (The Synthetic Dream Foundation Mix)"
    PERFORMER "Aiboforcen"
    INDEX 01 19:02:18
  TRACK 06 AUDIO
    TITLE "What's A Fetiche Darling"
    PERFORMER "Aiboforcen"
    INDEX 01 23:08:71
  TRACK 07 AUDIO
    TITLE "Crysis (Psy'Aviah Mix)"
    PERFORMER "Aiboforcen"
    INDEX 01 26:55:42
  TRACK 08 AUDIO
    TITLE "Wrapped In Plastic (feat. Implant)"
    PERFORMER "Aiboforcen"
    INDEX 01 31:48:30
  TRACK 09 AUDIO
    TITLE "Dedale (Acretongue Mix)"
    PERFORMER "Aiboforcen"
    INDEX 01 37:23:22
  TRACK 10 AUDIO
    TITLE "Shadows (Regenerator Mix)"
    PERFORMER "Aiboforcen"
    INDEX 01 42:18:66
  TRACK 11 AUDIO
    TITLE "Twilight World (Revisited)"
    PERFORMER "Aiboforcen"
    INDEX 01 47:46:16
  TRACK 12 AUDIO
    TITLE "Crysis (Kant Kino Mix)"
    PERFORMER "Aiboforcen"
    INDEX 01 51:30:16
  TRACK 13 AUDIO
    TITLE "Dedale (Celluloide Mix)"
    PERFORMER "Aiboforcen"
    INDEX 01 56:04:71
  TRACK 14 AUDIO
    TITLE "Running With The Wrong Boys (feat. Leaether Strip)"
    PERFORMER "Aiboforcen"
    INDEX 01 61:14:21
  TRACK 15 AUDIO
    TITLE "Shadows (Beati Mortui Mix)"
    PERFORMER "Aiboforcen"
    INDEX 01 65:57:18

Правила, инструкции, FAQ!!!
Торрент  Добавлен [26 июн 2020, 20:15] Скачать торрент Магнет ссылка
Скачать торрент
[ Размер 12.55 КБ / Просмотров 11 ]

Статус
Проверен 
 
Размер  1.01 ГБ
Приватный: Нет (DHT включён)
.torrent скачан  0
 


     Отправить личное сообщение
   
Страница 1 из 1
Показать сообщения за:  Поле сортировки  
Начать новую тему Ответить на тему


Сейчас этот форум просматривают: нет зарегистрированных пользователей и гости: 0


Вы не можете начинать темы
Вы не можете отвечать на сообщения
Вы не можете редактировать свои сообщения
Вы не можете удалять свои сообщения
Вы не можете добавлять вложения

Перейти:  
cron