Начать новую тему Ответить на тему
Статистика раздачи
Размер: 251.02 МБ | Добавлен: 26 июн 2020, 20:35 | Скачали: 0
Сидеров: 0  [0 байт/сек]    Личеров: 0  [0 байт/сек]
Пред. тема | След. тема 

Автор
Сообщение

СообщениеДобавлено: 26 июн 2020, 20:35 

Ответить с цитатой 

Drunkness - One Of 200,000,000 [Mini-Album]
Жанр: Electro
Год выпуска диска: 1996
Производитель диска: Germany
Аудио кодек: APE
Тип рипа: image+.cue
Битрейт аудио: lossless
Продолжительность: 00:40:33
Трэклист:
1. Warp 9,9 2:17
2. Cyberworld 5:03
3. The Visitor 4:02
4. Black Hit Of Space 3:58
5. Sie Kommen Zurueck (German Slow Mix) 5:03
6. Abducted (Where Is Her Friendly Face?) 5:46
7. Dreams Of Drowning 5:39
8. Traumwelt (Remix) 3:41
Код:
Exact Audio Copy V0.99 prebeta 5 from 4. May 2009
Отчёт EAC об извлечении, выполненном 17. октября 2009, 23:12
Drunkness / One of 200.000.000
Дисковод: Optiarc DVD RW AD-7201S   Adapter: 2  ID: 1
Режим чтения                 : Достоверность
Использование точного потока : Да
Отключение кэша аудио        : Да
Использование указателей C2  : Нет
Коррекция смещения при чтении                     : 48
Способность читать области Lead-in и Lead-out     : Нет
Заполнение пропущенных сэмплов тишиной            : Да
Удаление блоков с тишиной в начале и конце        : Нет
При вычислениях CRC использовались нулевые сэмплы : Да
Интерфейс                                         : Встроенный Win32-интерфейс для Win NT/2000
Выходной формат : Внутренние WAV-операции
Формат сэмплов  : 44.100 Гц; 16 бит; стерео
TOC извлечённого CD
     Трек |   Старт  | Длительность | Начальный сектор | Конечный сектор
    ---------------------------------------------------------------------
       1  |  0:00.00 |    2:17.45   |           0      |      10319
       2  |  2:17.45 |    5:03.24   |       10320      |      33068
       3  |  7:20.69 |    4:02.18   |       33069      |      51236
       4  | 11:23.12 |    3:57.60   |       51237      |      69071
       5  | 15:20.72 |    5:03.14   |       69072      |      91810
       6  | 20:24.11 |    5:46.22   |       91811      |     117782
       7  | 26:10.33 |    5:38.54   |      117783      |     143186
       8  | 31:49.12 |    8:43.46   |      143187      |     182457
Характеристики диапазона извлечения и сообщения об ошибках
Выбранный диапазон
     Имя файла C:\Users\Rodexx\Desktop\Drunkness\Drunkness - One of 200.000.000.wav
     Пиковый уровень 100.0 %
     Качество диапазона 100.0 %
     CRC теста 4BB44946
     CRC копии 4BB44946
     Копирование... OK
Ошибок не произошло
AccurateRip: сводка
Трек  1  точность не определена (достоверность 1)  [D72DB791], AccurateRip вернул [6EBA29FE]
Трек  2  точность не определена (достоверность 1)  [84C2CCD6], AccurateRip вернул [8A500CF9]
Трек  3  точность не определена (достоверность 1)  [BF3A42B0], AccurateRip вернул [767BCF50]
Трек  4  точность не определена (достоверность 1)  [CC437503], AccurateRip вернул [30612933]
Трек  5  точность не определена (достоверность 1)  [60FE5892], AccurateRip вернул [1420D42D]
Трек  6  точность не определена (достоверность 1)  [66928B41], AccurateRip вернул [3C8D6821]
Трек  7  точность не определена (достоверность 1)  [E33149C1], AccurateRip вернул [FAF6D532]
Трек  8  точность не определена (достоверность 1)  [475C1D23], AccurateRip вернул [51A14D03]
Ни один трек не прошёл проверки на точность
В вашей базе может быть иной вариант штамповки диска
Конец отчёта
Код:
AUDIOCHECKER v2.0 beta (build 457) - by Dester - opdester@freemail.hu
~~~~~~~~~~~~~~~~~~~~~~~~~~~~~~~~~~
Started at: воскресенье, 18. 10. 2009. - 0:08.44
1 file found
1 -===- E:\Раздачи\Drunkness\Drunkness - One of 200.000.000.ape
  Extracted successfully
  Conclusion: this track is CDDA with probability 100%
  Tempfile successfully deleted.
Finished at: воскресенье, 18. 10. 2009. - 0:13.51 (operation time: 0:05.07)
Label:Discordia
DiscordiaCatalog#:DISC 094 CD
Format:CD, Mini-Album
Country:Germany
Released:1996
Genre:Electronic
Style:Electro, Synth-pop
Правила, инструкции, FAQ!!!
Торрент  Добавлен [26 июн 2020, 20:35] Скачать торрент Магнет ссылка
Скачать торрент
[ Размер 20.38 КБ / Просмотров 10 ]

Статус
Проверен 
 
Размер  251.02 МБ
Приватный: Нет (DHT включён)
.torrent скачан  0
 


     Отправить личное сообщение
   
Страница 1 из 1
Показать сообщения за:  Поле сортировки  
Начать новую тему Ответить на тему


Сейчас этот форум просматривают: нет зарегистрированных пользователей и гости: 0


Вы не можете начинать темы
Вы не можете отвечать на сообщения
Вы не можете редактировать свои сообщения
Вы не можете удалять свои сообщения
Вы не можете добавлять вложения

Перейти:  
cron