Начать новую тему Ответить на тему
Статистика раздачи
Размер: 1.08 ГБ | Добавлен: 26 июн 2020, 20:35 | Скачали: 0
Сидеров: 0  [0 байт/сек]    Личеров: 0  [0 байт/сек]
Пред. тема | След. тема 

Автор
Сообщение

СообщениеДобавлено: 26 июн 2020, 20:35 

Ответить с цитатой 

Poesie Noire 3CD - Albums 1987-1989
Жанр: Electro, Darkwave, EBM, Synth-pop, Industrial
Носитель: CD
Страна-производитель диска (релиза): Belgium
Год издания: 1987-1989
Страна исполнителя (группы): Belgium
Аудиокодек: FLAC (*.flac)
Тип рипа: tracks+.cue
Продолжительность: 02:54:21
Источник: SoulSeek от Jezulkim
Наличие сканов в содержимом раздачи: родных нет, только с discogs
http://fastpic.ru/Poésie Noire – Tales Of Doom 1987
Label:Antler Records ‎– Ant 053-CD
Format:CD, Album
Country:Belgium
Released:1987
Style:EBM, Electro
Tracklist:
01. Radioactive Flood 4:15
02. Night Of The Mare 3:49
03. Hidden Dimension 3:10
04. Verge Of Tears 3:50
05. Lost In Thought 2:51
06. Ooooooh 3:45
07. El Jihad 1:40
08. Gardens Of Insanity 2:30
09. Come Pjutr Syntax Error 4:08
10. Fly 0:49
11. Starvation Of A Mind 3:40
12. Soldiers Of Fortune 2:40
13. Radioactive Flood (Dance Version) 5:50
14. Dark Number 4:36
15. Relentless Passage 3:11
16. Night Of The Mare (Dance Version) 4:24
Код:
Exact Audio Copy V1.0 beta 6 from 9. April 2015
EAC extraction logfile from 21. July 2015, 13:08
Poesie Noire / Tales Of Doom
Used drive  : TSSTcorpBDDVDW SE-506BB   Adapter: 1  ID: 2
Read mode               : Secure
Utilize accurate stream : Yes
Defeat audio cache      : Yes
Make use of C2 pointers : No
Read offset correction                      : 6
Overread into Lead-In and Lead-Out          : No
Fill up missing offset samples with silence : Yes
Delete leading and trailing silent blocks   : No
Null samples used in CRC calculations       : Yes
Used interface                              : Native Win32 interface for Win NT & 2000
Gap handling                                : Appended to previous track
Used output format              : User Defined Encoder
Selected bitrate                : 1024 kBit/s
Quality                         : High
Add ID3 tag                     : No
Command line compressor         : C:\Program Files (x86)\Exact Audio Copy\FLAC\FLAC.EXE
Additional command line options : -8 -V -T "ARTIST=%artist%" -T "TITLE=%title%" -T "ALBUM=%albumtitle%" -T "DATE=%year%" -T "TRACKNUMBER=%tracknr%" -T "GENRE=%genre%" %source%
TOC of the extracted CD
     Track |   Start  |  Length  | Start sector | End sector
    ---------------------------------------------------------
        1  |  0:00.32 |  4:02.03 |        32    |    18184
        2  |  4:02.35 |  3:48.50 |     18185    |    35334
        3  |  7:51.10 |  3:12.67 |     35335    |    49801
        4  | 11:04.02 |  3:48.03 |     49802    |    66904
        5  | 14:52.05 |  2:55.05 |     66905    |    80034
        6  | 17:47.10 |  3:45.02 |     80035    |    96911
        7  | 21:32.12 |  1:40.48 |     96912    |   104459
        8  | 23:12.60 |  2:34.52 |    104460    |   116061
        9  | 25:47.37 |  4:12.73 |    116062    |   135034
       10  | 30:00.35 |  0:46.45 |    135035    |   138529
       11  | 30:47.05 |  3:50.25 |    138530    |   155804
       12  | 34:37.30 |  2:41.07 |    155805    |   167886
       13  | 37:18.37 |  5:51.68 |    167887    |   194279
       14  | 43:10.30 |  4:38.00 |    194280    |   215129
       15  | 47:48.30 |  3:14.30 |    215130    |   229709
       16  | 51:02.60 |  4:25.67 |    229710    |   249651
Track  1
     Filename C:\Users\jpc\Desktop\Poesie Noire - Tales Of Doom (1987)\ 01 - Radioactive Flood.wav
     Pre-gap length  0:00:02.42
     Peak level 97.7 %
     Extraction speed 1.0 X
     Track quality 99.9 %
     Test CRC 2C4CE453
     Copy CRC 2C4CE453
     Accurately ripped (confidence 7)  [7BABCEE1]  (AR v2)
     Copy OK
Track  2
     Filename C:\Users\jpc\Desktop\Poesie Noire - Tales Of Doom (1987)\ 02 - Night Of The Mare.wav
     Pre-gap length  0:00:00.40
     Peak level 98.3 %
     Extraction speed 1.2 X
     Track quality 100.0 %
     Test CRC EC2A67BC
     Copy CRC EC2A67BC
     Accurately ripped (confidence 7)  [64F4A74D]  (AR v2)
     Copy OK
Track  3
     Filename C:\Users\jpc\Desktop\Poesie Noire - Tales Of Doom (1987)\ 03 - Hidden Dimension.wav
     Pre-gap length  0:00:00.33
     Peak level 97.7 %
     Extraction speed 1.1 X
     Track quality 99.9 %
     Test CRC A39CE2E6
     Copy CRC A39CE2E6
     Accurately ripped (confidence 7)  [0EF50DD6]  (AR v2)
     Copy OK
Track  4
     Filename C:\Users\jpc\Desktop\Poesie Noire - Tales Of Doom (1987)\ 04 - Verge Of Tears.wav
     Pre-gap length  0:00:00.33
     Peak level 97.7 %
     Extraction speed 1.3 X
     Track quality 99.9 %
     Test CRC 2101CA25
     Copy CRC 2101CA25
     Accurately ripped (confidence 7)  [1EA9D2BF]  (AR v2)
     Copy OK
Track  5
     Filename C:\Users\jpc\Desktop\Poesie Noire - Tales Of Doom (1987)\ 05 - Lost In Thought.wav
     Peak level 95.0 %
     Extraction speed 1.5 X
     Track quality 100.0 %
     Test CRC AA3DC81B
     Copy CRC AA3DC81B
     Accurately ripped (confidence 7)  [D9B5DAED]  (AR v2)
     Copy OK
Track  6
     Filename C:\Users\jpc\Desktop\Poesie Noire - Tales Of Doom (1987)\ 06 - Oooooh.wav
     Pre-gap length  0:00:00.33
     Peak level 97.2 %
     Extraction speed 1.6 X
     Track quality 100.0 %
     Test CRC EF5628B6
     Copy CRC EF5628B6
     Accurately ripped (confidence 7)  [32567E23]  (AR v2)
     Copy OK
Track  7
     Filename C:\Users\jpc\Desktop\Poesie Noire - Tales Of Doom (1987)\ 07 - El Jihad.wav
     Peak level 97.2 %
     Extraction speed 1.4 X
     Track quality 100.0 %
     Test CRC A1E76CDF
     Copy CRC A1E76CDF
     Accurately ripped (confidence 7)  [CADC6787]  (AR v2)
     Copy OK
Track  8
     Filename C:\Users\jpc\Desktop\Poesie Noire - Tales Of Doom (1987)\ 08 - Gardens Of Insanity.wav
     Peak level 98.3 %
     Extraction speed 1.3 X
     Track quality 99.9 %
     Test CRC 163E53B0
     Copy CRC 163E53B0
     Accurately ripped (confidence 7)  [0447A78C]  (AR v2)
     Copy OK
Track  9
     Filename C:\Users\jpc\Desktop\Poesie Noire - Tales Of Doom (1987)\ 09 - Come Pjutr Syntax Error.wav
     Peak level 97.3 %
     Extraction speed 1.6 X
     Track quality 99.9 %
     Test CRC 4A1CA834
     Copy CRC 4A1CA834
     Accurately ripped (confidence 7)  [01BB86AA]  (AR v2)
     Copy OK
Track 10
     Filename C:\Users\jpc\Desktop\Poesie Noire - Tales Of Doom (1987)\ 10 - Fly.wav
     Peak level 97.0 %
     Extraction speed 1.2 X
     Track quality 100.0 %
     Test CRC B81067F0
     Copy CRC B81067F0
     Accurately ripped (confidence 7)  [CA76FF0B]  (AR v2)
     Copy OK
Track 11
     Filename C:\Users\jpc\Desktop\Poesie Noire - Tales Of Doom (1987)\ 11 - Starvation Of A Mind.wav
     Peak level 97.2 %
     Extraction speed 1.9 X
     Track quality 100.0 %
     Test CRC 135A595C
     Copy CRC 135A595C
     Accurately ripped (confidence 7)  [33A17F31]  (AR v2)
     Copy OK
Track 12
     Filename C:\Users\jpc\Desktop\Poesie Noire - Tales Of Doom (1987)\ 12 - Soldiers Of Fortune.wav
     Peak level 98.3 %
     Extraction speed 1.8 X
     Track quality 100.0 %
     Test CRC 682B6FFE
     Copy CRC 682B6FFE
     Accurately ripped (confidence 7)  [922EA3E3]  (AR v2)
     Copy OK
Track 13
     Filename C:\Users\jpc\Desktop\Poesie Noire - Tales Of Doom (1987)\ 13 - Radioactive Flood (Dance Version).wav
     Pre-gap length  0:00:00.50
     Peak level 97.2 %
     Extraction speed 2.0 X
     Track quality 99.9 %
     Test CRC 970B9C6B
     Copy CRC 970B9C6B
     Accurately ripped (confidence 7)  [911A11DD]  (AR v2)
     Copy OK
Track 14
     Filename C:\Users\jpc\Desktop\Poesie Noire - Tales Of Doom (1987)\ 14 - Dark Number.wav
     Pre-gap length  0:00:00.44
     Peak level 97.2 %
     Extraction speed 2.2 X
     Track quality 100.0 %
     Test CRC D2FFDB1E
     Copy CRC D2FFDB1E
     Accurately ripped (confidence 6)  [07F9D420]  (AR v2)
     Copy OK
Track 15
     Filename C:\Users\jpc\Desktop\Poesie Noire - Tales Of Doom (1987)\ 15 - Relentless Passage.wav
     Pre-gap length  0:00:00.33
     Peak level 97.2 %
     Extraction speed 2.1 X
     Track quality 100.0 %
     Test CRC 921251EB
     Copy CRC 921251EB
     Accurately ripped (confidence 6)  [CEBBE86F]  (AR v2)
     Copy OK
Track 16
     Filename C:\Users\jpc\Desktop\Poesie Noire - Tales Of Doom (1987)\ 16 - Night Of The Mare  (Dance Version).wav
     Pre-gap length  0:00:00.33
     Peak level 97.2 %
     Extraction speed 2.3 X
     Track quality 100.0 %
     Test CRC 21934389
     Copy CRC 21934389
     Accurately ripped (confidence 5)  [1994E969]  (AR v2)
     Copy OK
All tracks accurately ripped
No errors occurred
End of status report
---- CUETools DB Plugin V2.1.6
[CTDB TOCID: L0OlGMHBDnPSanKWDzmWFsqQgVc-] found
Submit result: insufficient quality
Track | CTDB Status
  1   | (4/4) Accurately ripped
  2   | (4/4) Accurately ripped
  3   | (4/4) Accurately ripped
  4   | (4/4) Accurately ripped
  5   | (4/4) Accurately ripped
  6   | (1/4) Differs in 1 samples @03:35:25, or (3/4) differs in 1 samples @03:35:25
  7   | (4/4) Accurately ripped
  8   | (4/4) Accurately ripped
  9   | (4/4) Accurately ripped
 10   | (4/4) Accurately ripped
 11   | (4/4) Accurately ripped
 12   | (4/4) Accurately ripped
 13   | (4/4) Accurately ripped
 14   | (4/4) Accurately ripped
 15   | (4/4) Accurately ripped
 16   | (4/4) Accurately ripped
If you are sure that your rip contains errors, you can use CUETools to repair it.
==== Log checksum 29F334B09A917CF3C47857D196BDE18249787423B07BBCE417079DD5D46664E6 ====
Код:
REM GENRE Electronic
REM DATE 1987
REM DISCID F00D0010
REM COMMENT "ExactAudioCopy v1.0b6"
CATALOG 0000000000000
PERFORMER "Poesie Noire"
TITLE "Tales Of Doom"
FILE "01 - Radioactive Flood.flac" WAVE
  TRACK 01 AUDIO
    TITLE "Radioactive Flood"
    PERFORMER "Poesie Noire"
    PREGAP 00:00:32
    INDEX 01 00:00:00
  TRACK 02 AUDIO
    TITLE "Night Of The Mare"
    PERFORMER "Poesie Noire"
    INDEX 00 04:01:48
FILE "02 - Night Of The Mare.flac" WAVE
    INDEX 01 00:00:00
  TRACK 03 AUDIO
    TITLE "Hidden Dimension"
    PERFORMER "Poesie Noire"
    INDEX 00 03:48:25
FILE "03 - Hidden Dimension.flac" WAVE
    INDEX 01 00:00:00
  TRACK 04 AUDIO
    TITLE "Verge Of Tears"
    PERFORMER "Poesie Noire"
    INDEX 00 03:12:42
FILE "04 - Verge Of Tears.flac" WAVE
    INDEX 01 00:00:00
FILE "05 - Lost In Thought.flac" WAVE
  TRACK 05 AUDIO
    TITLE "Lost In Thought"
    PERFORMER "Poesie Noire"
    INDEX 01 00:00:00
  TRACK 06 AUDIO
    TITLE "Oooooh"
    PERFORMER "Poesie Noire"
    INDEX 00 02:54:55
FILE "06 - Ooooooh.flac" WAVE
    INDEX 01 00:00:00
FILE "07 - El Jihad.flac" WAVE
  TRACK 07 AUDIO
    TITLE "El Jihad"
    PERFORMER "Poesie Noire"
    INDEX 01 00:00:00
FILE "08 - Gardens Of Insanity.flac" WAVE
  TRACK 08 AUDIO
    TITLE "Gardens Of Insanity"
    PERFORMER "Poesie Noire"
    INDEX 01 00:00:00
FILE "09 - Come Pjutr Syntax Error.flac" WAVE
  TRACK 09 AUDIO
    TITLE "Come Pjutr Syntax Error"
    PERFORMER "Poesie Noire"
    INDEX 01 00:00:00
FILE "10 - Fly.flac" WAVE
  TRACK 10 AUDIO
    TITLE "Fly"
    PERFORMER "Poesie Noire"
    INDEX 01 00:00:00
FILE "11 - Starvation Of A Mind.flac" WAVE
  TRACK 11 AUDIO
    TITLE "Starvation Of A Mind"
    PERFORMER "Poesie Noire"
    INDEX 01 00:00:00
FILE "12 - Soldiers Of Fortune.flac" WAVE
  TRACK 12 AUDIO
    TITLE "Soldiers Of Fortune"
    PERFORMER "Poesie Noire"
    INDEX 01 00:00:00
  TRACK 13 AUDIO
    TITLE "Radioactive Flood (Dance Version)"
    PERFORMER "Poesie Noire"
    INDEX 00 02:40:44
FILE "13 - Radioactive Flood (Dance Version).flac" WAVE
    INDEX 01 00:00:00
  TRACK 14 AUDIO
    TITLE "Dark Number"
    PERFORMER "Poesie Noire"
    INDEX 00 05:51:35
FILE "14 - Dark Number.flac" WAVE
    INDEX 01 00:00:00
  TRACK 15 AUDIO
    TITLE "Relentless Passage"
    PERFORMER "Poesie Noire"
    INDEX 00 04:37:50
FILE "15 - Relentless Passage.flac" WAVE
    INDEX 01 00:00:00
  TRACK 16 AUDIO
    TITLE "Night Of The Mare  (Dance Version)"
    PERFORMER "Poesie Noire"
    INDEX 00 03:14:05
FILE "16 - Night Of The Mare (Dance Version).flac" WAVE
    INDEX 01 00:00:00
#777Poésie Noire – Tetra 1988

Label:Antler Records ‎– Antler 074 CD
Format:CD, Album
Country:Belgium
Released:1988
Style:Electro, Darkwave, EBM, Synth-pop
Tracklist:
01. Tragedy 4:28
02. Earth 4:05
03. Travel 4:05
04. Rain 3:40
05. Air 2:35
06. [url=https://youtu.be/S1pbXTNkYWYTame[/url]3:35
07. Escape 3:10
08. Tower 3:20
09. [url=https://youtu.be/FBVRUK6x0KQ]Rescue[/url] 3:30
10. Adaptation 4:00
11. Agony 4:40
12. Earth (Material Version) 4:05
13. Restraint 3:30
14. Timber 5:08
15. White Nights 4:16
Код:
Exact Audio Copy V1.0 beta 6 from 9. April 2015
EAC extraction logfile from 22. July 2015, 20:21
Poesie Noire / Tetra
Used drive  : TSSTcorpBDDVDW SE-506BB   Adapter: 1  ID: 2
Read mode               : Secure
Utilize accurate stream : Yes
Defeat audio cache      : Yes
Make use of C2 pointers : No
Read offset correction                      : 6
Overread into Lead-In and Lead-Out          : No
Fill up missing offset samples with silence : Yes
Delete leading and trailing silent blocks   : No
Null samples used in CRC calculations       : Yes
Used interface                              : Native Win32 interface for Win NT & 2000
Gap handling                                : Appended to previous track
Used output format              : User Defined Encoder
Selected bitrate                : 1024 kBit/s
Quality                         : High
Add ID3 tag                     : No
Command line compressor         : C:\Program Files (x86)\Exact Audio Copy\FLAC\FLAC.EXE
Additional command line options : -8 -V -T "ARTIST=%artist%" -T "TITLE=%title%" -T "ALBUM=%albumtitle%" -T "DATE=%year%" -T "TRACKNUMBER=%tracknr%" -T "GENRE=%genre%" %source%
TOC of the extracted CD
     Track |   Start  |  Length  | Start sector | End sector
    ---------------------------------------------------------
        1  |  0:00.33 |  4:29.62 |        33    |    20269
        2  |  4:30.20 |  4:02.58 |     20270    |    38477
        3  |  8:33.03 |  4:10.05 |     38478    |    57232
        4  | 12:43.08 |  3:42.22 |     57233    |    73904
        5  | 16:25.30 |  2:38.38 |     73905    |    85792
        6  | 19:03.68 |  3:39.17 |     85793    |   102234
        7  | 22:43.10 |  3:34.68 |    102235    |   118352
        8  | 26:18.03 |  3:16.67 |    118353    |   133119
        9  | 29:34.70 |  2:48.28 |    133120    |   145747
       10  | 32:23.23 |  3:51.07 |    145748    |   163079
       11  | 36:14.30 |  4:00.73 |    163080    |   181152
       12  | 40:15.28 |  4:08.72 |    181153    |   199824
       13  | 44:24.25 |  3:33.20 |    199825    |   215819
       14  | 47:57.45 |  5:13.58 |    215820    |   239352
       15  | 53:11.28 |  4:16.25 |    239353    |   258577
Track  1
     Filename C:\Users\jpc\Desktop\Poesie Noire - Tetra (1988)\ 01 - Tragedy.wav
     Pre-gap length  0:00:02.44
     Peak level 92.6 %
     Extraction speed 1.2 X
     Track quality 100.0 %
     Test CRC 442C6283
     Copy CRC 442C6283
     Accurately ripped (confidence 7)  [4EFBF1F5]  (AR v2)
     Copy OK
Track  2
     Filename C:\Users\jpc\Desktop\Poesie Noire - Tetra (1988)\ 02 - Earth.wav
     Pre-gap length  0:00:01.06
     Peak level 99.9 %
     Extraction speed 1.3 X
     Track quality 100.0 %
     Test CRC E4E73909
     Copy CRC E4E73909
     Accurately ripped (confidence 5)  [AB32A177]  (AR v2)
     Copy OK
Track  3
     Filename C:\Users\jpc\Desktop\Poesie Noire - Tetra (1988)\ 03 - Travel.wav
     Pre-gap length  0:00:00.90
     Peak level 90.6 %
     Extraction speed 1.4 X
     Track quality 100.0 %
     Test CRC 2A58880C
     Copy CRC 2A58880C
     Accurately ripped (confidence 6)  [0A39CA3A]  (AR v2)
     Copy OK
Track  4
     Filename C:\Users\jpc\Desktop\Poesie Noire - Tetra (1988)\ 04 - Rain.wav
     Pre-gap length  0:00:01.57
     Peak level 92.2 %
     Extraction speed 1.5 X
     Track quality 100.0 %
     Test CRC 26DE5CED
     Copy CRC 26DE5CED
     Accurately ripped (confidence 6)  [CFDFBB27]  (AR v2)
     Copy OK
Track  5
     Filename C:\Users\jpc\Desktop\Poesie Noire - Tetra (1988)\ 05 - Air.wav
     Pre-gap length  0:00:00.16
     Peak level 93.9 %
     Extraction speed 1.5 X
     Track quality 100.0 %
     Test CRC 32C0253E
     Copy CRC 32C0253E
     Accurately ripped (confidence 6)  [46FA6A6D]  (AR v2)
     Copy OK
Track  6
     Filename C:\Users\jpc\Desktop\Poesie Noire - Tetra (1988)\ 06 - Tame.wav
     Pre-gap length  0:00:00.20
     Peak level 85.2 %
     Extraction speed 1.6 X
     Track quality 100.0 %
     Test CRC DA018B7A
     Copy CRC DA018B7A
     Accurately ripped (confidence 6)  [BED1AD9E]  (AR v2)
     Copy OK
Track  7
     Filename C:\Users\jpc\Desktop\Poesie Noire - Tetra (1988)\ 07 - Escape.wav
     Peak level 91.9 %
     Extraction speed 1.7 X
     Track quality 100.0 %
     Test CRC F2E89E24
     Copy CRC F2E89E24
     Accurately ripped (confidence 7)  [7F167068]  (AR v2)
     Copy OK
Track  8
     Filename C:\Users\jpc\Desktop\Poesie Noire - Tetra (1988)\ 08 - Tower.wav
     Peak level 97.6 %
     Extraction speed 1.5 X
     Track quality 99.9 %
     Test CRC 0AF13C2A
     Copy CRC 0AF13C2A
     Accurately ripped (confidence 7)  [A03D37AA]  (AR v2)
     Copy OK
Track  9
     Filename C:\Users\jpc\Desktop\Poesie Noire - Tetra (1988)\ 09 - Rescue.wav
     Pre-gap length  0:00:00.69
     Peak level 95.5 %
     Extraction speed 1.8 X
     Track quality 100.0 %
     Test CRC 18A0D2CB
     Copy CRC 18A0D2CB
     Accurately ripped (confidence 7)  [FAC345EB]  (AR v2)
     Copy OK
Track 10
     Filename C:\Users\jpc\Desktop\Poesie Noire - Tetra (1988)\ 10 - Adaptation.wav
     Pre-gap length  0:00:00.77
     Peak level 95.8 %
     Extraction speed 1.7 X
     Track quality 99.9 %
     Test CRC 4D00DD46
     Copy CRC 4D00DD46
     Accurately ripped (confidence 7)  [74C1CBC5]  (AR v2)
     Copy OK
Track 11
     Filename C:\Users\jpc\Desktop\Poesie Noire - Tetra (1988)\ 11 - Agony.wav
     Pre-gap length  0:00:01.00
     Peak level 90.1 %
     Extraction speed 2.0 X
     Track quality 100.0 %
     Test CRC 35293234
     Copy CRC 35293234
     Accurately ripped (confidence 7)  [AD30A9D7]  (AR v2)
     Copy OK
Track 12
     Filename C:\Users\jpc\Desktop\Poesie Noire - Tetra (1988)\ 12 - Earth (Material version).wav
     Pre-gap length  0:00:00.53
     Peak level 99.1 %
     Extraction speed 1.9 X
     Track quality 99.9 %
     Test CRC FE076401
     Copy CRC FE076401
     Accurately ripped (confidence 7)  [ACF28F48]  (AR v2)
     Copy OK
Track 13
     Filename C:\Users\jpc\Desktop\Poesie Noire - Tetra (1988)\ 13 - Restraint.wav
     Pre-gap length  0:00:00.76
     Peak level 97.3 %
     Extraction speed 2.1 X
     Track quality 100.0 %
     Test CRC 5A58AC1F
     Copy CRC 5A58AC1F
     Accurately ripped (confidence 7)  [EC9F0E0F]  (AR v2)
     Copy OK
Track 14
     Filename C:\Users\jpc\Desktop\Poesie Noire - Tetra (1988)\ 14 - Timber.wav
     Pre-gap length  0:00:00.22
     Peak level 91.0 %
     Extraction speed 2.3 X
     Track quality 100.0 %
     Test CRC 54A85807
     Copy CRC 54A85807
     Accurately ripped (confidence 7)  [A1B8BC20]  (AR v2)
     Copy OK
Track 15
     Filename C:\Users\jpc\Desktop\Poesie Noire - Tetra (1988)\ 15 - White Nights.wav
     Pre-gap length  0:00:02.13
     Peak level 87.8 %
     Extraction speed 2.1 X
     Track quality 99.9 %
     Test CRC 83F01907
     Copy CRC 83F01907
     Accurately ripped (confidence 7)  [3A152F82]  (AR v2)
     Copy OK
All tracks accurately ripped
No errors occurred
End of status report
---- CUETools DB Plugin V2.1.6
[CTDB TOCID: reJvS1F6bDgGIP8nDBZBSFSJAyU-] disk not present in database
Submit result: reJvS1F6bDgGIP8nDBZBSFSJAyU- has been uploaded
==== Log checksum 1757C3B5E536DB885D2080233A102561B128E86E0D118749374D824E0143D68C ====
Код:
REM GENRE "New Wave"
REM DATE 1988
REM DISCID EE0D770F
REM COMMENT "ExactAudioCopy v1.0b6"
CATALOG 0000000000000
PERFORMER "Poesie Noire"
TITLE "Tetra"
FILE "01 - Tragedy.wav" WAVE
  TRACK 01 AUDIO
    TITLE "Tragedy"
    PERFORMER "Poesie Noire"
    PREGAP 00:00:33
    INDEX 01 00:00:00
  TRACK 02 AUDIO
    TITLE "Earth"
    PERFORMER "Poesie Noire"
    INDEX 00 04:28:57
FILE "02 - Earth.wav" WAVE
    INDEX 01 00:00:00
  TRACK 03 AUDIO
    TITLE "Travel"
    PERFORMER "Poesie Noire"
    INDEX 00 04:01:65
FILE "03 - Travel.wav" WAVE
    INDEX 01 00:00:00
  TRACK 04 AUDIO
    TITLE "Rain"
    PERFORMER "Poesie Noire"
    INDEX 00 04:08:37
FILE "04 - Rain.wav" WAVE
    INDEX 01 00:00:00
  TRACK 05 AUDIO
    TITLE "Air"
    PERFORMER "Poesie Noire"
    INDEX 00 03:42:10
FILE "05 - Air.wav" WAVE
    INDEX 01 00:00:00
  TRACK 06 AUDIO
    TITLE "Tame"
    PERFORMER "Poesie Noire"
    INDEX 00 02:38:23
FILE "06 - Tame.wav" WAVE
    INDEX 01 00:00:00
FILE "07 - Escape.wav" WAVE
  TRACK 07 AUDIO
    TITLE "Escape"
    PERFORMER "Poesie Noire"
    INDEX 01 00:00:00
FILE "08 - Tower.wav" WAVE
  TRACK 08 AUDIO
    TITLE "Tower"
    PERFORMER "Poesie Noire"
    INDEX 01 00:00:00
  TRACK 09 AUDIO
    TITLE "Rescue"
    PERFORMER "Poesie Noire"
    INDEX 00 03:16:15
FILE "09 - Rescue.wav" WAVE
    INDEX 01 00:00:00
  TRACK 10 AUDIO
    TITLE "Adaptation"
    PERFORMER "Poesie Noire"
    INDEX 00 02:47:45
FILE "10 - Adaptation.wav" WAVE
    INDEX 01 00:00:00
  TRACK 11 AUDIO
    TITLE "Agony"
    PERFORMER "Poesie Noire"
    INDEX 00 03:50:07
FILE "11 - Agony.wav" WAVE
    INDEX 01 00:00:00
  TRACK 12 AUDIO
    TITLE "Earth (Material version)"
    PERFORMER "Poesie Noire"
    INDEX 00 04:00:33
FILE "12 - Earth (Material version).wav" WAVE
    INDEX 01 00:00:00
  TRACK 13 AUDIO
    TITLE "Restraint"
    PERFORMER "Poesie Noire"
    INDEX 00 04:08:15
FILE "13 - Restraint.wav" WAVE
    INDEX 01 00:00:00
  TRACK 14 AUDIO
    TITLE "Timber"
    PERFORMER "Poesie Noire"
    INDEX 00 03:33:03
FILE "14 - Timber.wav" WAVE
    INDEX 01 00:00:00
  TRACK 15 AUDIO
    TITLE "White Nights"
    PERFORMER "Poesie Noire"
    INDEX 00 05:11:48
FILE "15 - White Nights.wav" WAVE
    INDEX 01 00:00:00
#777Poésie Noire – Love Is Colder Than Death 1989
Label:Antler-Subway ‎– AS 5006-CD, Antler-Subway ‎– A.S.5006-CD, Antler-Subway ‎– A.S. 5006-CD
Format:CD, Album
Country:Belgium
Released:1989
Style:Industrial
Tracklist:
01. Vow Of Silence 4:48
02. Deja Vu 5:17
03. Aura Of Sadness 5:14
04. Taste Of Candy 4:12
05. Oblivion 2:53
06. Spiral 4:08
07. No Beach 4:50
08. Icicle 5:26
09. Ocean Of Tears 3:12
10. Love Is Colder Than Death 5:18
11. Gare Du Nord 4:29
12. The Lake 4:01
13. Final Station 4:02
14. Les Excuses 3:22
Код:
Exact Audio Copy V0.99 prebeta 5 from 4. May 2009
EAC extraction logfile from 26. August 2009, 22:38
Poйsie Noire / Love Is Colder Than Death
Used drive  : LITE-ON LTR-40125S   Adapter: 1  ID: 0
Read mode               : Secure
Utilize accurate stream : Yes
Defeat audio cache      : Yes
Make use of C2 pointers : No
Read offset correction                      : 12
Overread into Lead-In and Lead-Out          : No
Fill up missing offset samples with silence : Yes
Delete leading and trailing silent blocks   : No
Null samples used in CRC calculations       : Yes
Used interface                              : Native Win32 interface for Win NT & 2000
Gap handling                                : Appended to previous track
Used output format              : User Defined Encoder
Selected bitrate                : 128 kBit/s
Quality                         : High
Add ID3 tag                     : No
Command line compressor         : C:\Program Files\Exact Audio Copy\Flac\flac.exe
Additional command line options : -V -8 -T "artist=%a" -T "title=%t" -T "album=%g" -T "date=%y" -T "tracknumber=%n" -T "genre=%m" %s
TOC of the extracted CD
     Track |   Start  |  Length  | Start sector | End sector
    ---------------------------------------------------------
        1  |  0:00.00 |  4:48.40 |         0    |    21639
        2  |  4:48.40 |  5:16.70 |     21640    |    45409
        3  | 10:05.35 |  5:14.62 |     45410    |    69021
        4  | 15:20.22 |  4:12.35 |     69022    |    87956
        5  | 19:32.57 |  2:53.60 |     87957    |   100991
        6  | 22:26.42 |  4:08.43 |    100992    |   119634
        7  | 26:35.10 |  4:50.42 |    119635    |   141426
        8  | 31:25.52 |  5:27.23 |    141427    |   165974
        9  | 36:53.00 |  3:12.55 |    165975    |   180429
       10  | 40:05.55 |  5:18.72 |    180430    |   204351
       11  | 45:24.52 |  4:30.73 |    204352    |   224674
       12  | 49:55.50 |  4:04.00 |    224675    |   242974
       13  | 53:59.50 |  4:04.02 |    242975    |   261276
       14  | 58:03.52 |  3:22.70 |    261277    |   276496
Track  1
     Filename C:\Rip\01 - Vow of Silence.wav
     Pre-gap length  0:00:02.00
     Peak level 87.3 %
     Track quality 99.9 %
     Test CRC 38BEFCE8
     Copy CRC 38BEFCE8
     Track not present in AccurateRip database
     Copy OK
Track  2
     Filename C:\Rip\02 - Dйjа vu.wav
     Peak level 93.5 %
     Track quality 100.0 %
     Test CRC 44FCF4F1
     Copy CRC 44FCF4F1
     Track not present in AccurateRip database
     Copy OK
Track  3
     Filename C:\Rip\03 - Aura of Sadness.wav
     Peak level 93.5 %
     Track quality 100.0 %
     Test CRC A8DFA975
     Copy CRC A8DFA975
     Track not present in AccurateRip database
     Copy OK
Track  4
     Filename C:\Rip\04 - Taste of Candy.wav
     Peak level 71.9 %
     Track quality 100.0 %
     Test CRC 35693277
     Copy CRC 35693277
     Track not present in AccurateRip database
     Copy OK
Track  5
     Filename C:\Rip\05 - Oblivion.wav
     Pre-gap length  0:00:00.29
     Peak level 95.0 %
     Track quality 100.0 %
     Test CRC ED08E1A2
     Copy CRC ED08E1A2
     Track not present in AccurateRip database
     Copy OK
Track  6
     Filename C:\Rip\06 - Spiral.wav
     Pre-gap length  0:00:00.49
     Peak level 91.7 %
     Track quality 100.0 %
     Test CRC C0240060
     Copy CRC C0240060
     Track not present in AccurateRip database
     Copy OK
Track  7
     Filename C:\Rip\07 - No Beach.wav
     Pre-gap length  0:00:00.57
     Peak level 94.1 %
     Track quality 99.9 %
     Test CRC B140FE3F
     Copy CRC B140FE3F
     Track not present in AccurateRip database
     Copy OK
Track  8
     Filename C:\Rip\08 - Icicle.wav
     Pre-gap length  0:00:00.42
     Peak level 95.1 %
     Track quality 100.0 %
     Test CRC 84B76639
     Copy CRC 84B76639
     Track not present in AccurateRip database
     Copy OK
Track  9
     Filename C:\Rip\09 - Ocean of Tears.wav
     Pre-gap length  0:00:00.44
     Peak level 95.1 %
     Track quality 100.0 %
     Test CRC 62435A3A
     Copy CRC 62435A3A
     Track not present in AccurateRip database
     Copy OK
Track 10
     Filename C:\Rip\10 - Love Is Colder Than Death.wav
     Pre-gap length  0:00:00.70
     Peak level 74.7 %
     Track quality 100.0 %
     Test CRC AAA64A50
     Copy CRC AAA64A50
     Track not present in AccurateRip database
     Copy OK
Track 11
     Filename C:\Rip\11 - Gare du Nord.wav
     Pre-gap length  0:00:00.26
     Peak level 87.2 %
     Track quality 99.9 %
     Test CRC EA866CB0
     Copy CRC EA866CB0
     Track not present in AccurateRip database
     Copy OK
Track 12
     Filename C:\Rip\12 - The Lake.wav
     Pre-gap length  0:00:01.04
     Peak level 90.9 %
     Track quality 100.0 %
     Test CRC AF7569AF
     Copy CRC AF7569AF
     Track not present in AccurateRip database
     Copy OK
Track 13
     Filename C:\Rip\13 - Final Station.wav
     Pre-gap length  0:00:02.24
     Peak level 95.6 %
     Track quality 100.0 %
     Test CRC AA556F8F
     Copy CRC AA556F8F
     Track not present in AccurateRip database
     Copy OK
Track 14
     Filename C:\Rip\14 - Les Excuses.wav
     Pre-gap length  0:00:01.16
     Peak level 88.5 %
     Track quality 100.0 %
     Test CRC 02EA07E8
     Copy CRC 02EA07E8
     Track not present in AccurateRip database
     Copy OK
None of the tracks are present in the AccurateRip database
No errors occurred
End of status report
Код:
REM GENRE Unknown
REM DATE 1989
REM DISCID D30E660E
REM COMMENT "ExactAudioCopy v0.99pb5"
FILE "01 - Vow of Silence.wav" WAVE
  TRACK 01 AUDIO
    INDEX 01 00:00:00
FILE "02 - Dйjа vu.wav" WAVE
  TRACK 02 AUDIO
    INDEX 01 00:00:00
FILE "03 - Aura of Sadness.wav" WAVE
  TRACK 03 AUDIO
    INDEX 01 00:00:00
FILE "04 - Taste of Candy.wav" WAVE
  TRACK 04 AUDIO
    INDEX 01 00:00:00
  TRACK 05 AUDIO
    INDEX 00 04:12:13
FILE "05 - Oblivion.wav" WAVE
    INDEX 01 00:00:00
  TRACK 06 AUDIO
    INDEX 00 02:53:23
FILE "06 - Spiral.wav" WAVE
    INDEX 01 00:00:00
  TRACK 07 AUDIO
    INDEX 00 04:08:00
FILE "07 - No Beach.wav" WAVE
    INDEX 01 00:00:00
  TRACK 08 AUDIO
    INDEX 00 04:50:10
FILE "08 - Icicle.wav" WAVE
    INDEX 01 00:00:00
  TRACK 09 AUDIO
    INDEX 00 05:26:65
FILE "09 - Ocean of Tears.wav" WAVE
    INDEX 01 00:00:00
  TRACK 10 AUDIO
    INDEX 00 03:12:02
FILE "10 - Love Is Colder Than Death.wav" WAVE
    INDEX 01 00:00:00
  TRACK 11 AUDIO
    INDEX 00 05:18:52
FILE "11 - Gare du Nord.wav" WAVE
    INDEX 01 00:00:00
  TRACK 12 AUDIO
    INDEX 00 04:29:70
FILE "12 - The Lake.wav" WAVE
    INDEX 01 00:00:00
  TRACK 13 AUDIO
    INDEX 00 04:01:57
FILE "13 - Final Station.wav" WAVE
    INDEX 01 00:00:00
  TRACK 14 AUDIO
    INDEX 00 04:02:65
FILE "14 - Les Excuses.wav" WAVE
    INDEX 01 00:00:00
Особая благодарность Jezulkim из SoulSeek, за любезно предоставленный материал.
Evanna
Herman Gillis
Jo Casters
Marianne Valvekens
Mario Conjaerts
P.Vandormael
Sam Shepard
W.Ex-Ray
СКАЧАЛИ, НЕ ЗАБЫВАЕМ ГОВОРИТЬ СПАСИБО!
Правила, инструкции, FAQ!!!
Торрент  Добавлен [26 июн 2020, 20:35] Скачать торрент Магнет ссылка
Скачать торрент
[ Размер 17.07 КБ / Просмотров 9 ]

Статус
Проверен 
 
Размер  1.08 ГБ
Приватный: Нет (DHT включён)
.torrent скачан  0
 


     Отправить личное сообщение
   
Страница 1 из 1
Показать сообщения за:  Поле сортировки  
Начать новую тему Ответить на тему


Сейчас этот форум просматривают: нет зарегистрированных пользователей и гости: 0


Вы не можете начинать темы
Вы не можете отвечать на сообщения
Вы не можете редактировать свои сообщения
Вы не можете удалять свои сообщения
Вы не можете добавлять вложения

Перейти:  
cron