Начать новую тему Ответить на тему
Статистика раздачи
Размер: 335.32 МБ | Добавлен: 26 июн 2020, 17:34 | Скачали: 0
Сидеров: 0  [0 байт/сек]    Личеров: 0  [0 байт/сек]
Пред. тема | След. тема 

Автор
Сообщение

СообщениеДобавлено: 26 июн 2020, 17:34 

Ответить с цитатой 

Cleen - The Voice (Maxi-Single)
Жанр: Electro
Год выпуска диска: 2000
Производитель диска: Germany
Аудио кодек: FLAC
Тип рипа: tracks+.cue
Битрейт аудио: lossless
Продолжительность: 47:10
Трэклист:
1 The Voice (Radio Version) (3:49)
2 Sunburst (Stomp Mix) (5:54)
3 The Voice (Extended Version) (5:32)
4 0361 (Electrocity Festival Version) (4:23)
5 The Voice (And One Re-Interpretation) (5:00) Remix - And One
6 The Voice (Beborn Beton Remix) (5:51) Remix - Beborn Beton
7 The Voice (Cycletribe Remix) (5:35) Remix - Cycletribe
8 The Voice (:Wumpscut: Remix) (4:05) Remix - :wumpscut:
9 The Voice (Cut.Rate.Box. Remix) (6:42) Remix - cut.rate.box
Доп. информация:
Label: Accession Records
Catalog#: A 016
Credits: Arranged By, Producer - Daniel Myer; Lyrics By, Vocals - Thorsten Meier
Notes: Originally released under the distribution number EFA 03616-2 before Accession Records had its current catalog number format.
Код:
Exact Audio Copy V0.99 prebeta 4 from 23. January 2008
EAC extraction logfile from 17. December 2008, 10:34
Cleen / The Voice
Used drive  : _NEC    DVD_RW ND-3550A   Adapter: 0  ID: 0
Read mode               : Secure
Utilize accurate stream : Yes
Defeat audio cache      : Yes
Make use of C2 pointers : No
Read offset correction                      : 48
Overread into Lead-In and Lead-Out          : No
Fill up missing offset samples with silence : Yes
Delete leading and trailing silent blocks   : No
Null samples used in CRC calculations       : Yes
Used interface                              : Installed external ASPI interface
Gap handling                                : Appended to previous track
Used output format              : User Defined Encoder
Selected bitrate                : 1024 kBit/s
Quality                         : High
Add ID3 tag                     : No
Command line compressor         : D:\Programs\Tools\_Exact Audio Copy\FLAC\FLAC.EXE
Additional command line options : -8 -V -T "ARTIST=%a" -T "TITLE=%t" -T "ALBUM=%g" -T "DATE=%y" -T "TRACKNUMBER=%n" -T "GENRE=%m" -T "COMMENT=%e" %s -o %d
TOC of the extracted CD
     Track |   Start  |  Length  | Start sector | End sector
    ---------------------------------------------------------
        1  |  0:00.00 |  3:51.45 |         0    |    17369
        2  |  3:51.45 |  5:56.04 |     17370    |    44073
        3  |  9:47.49 |  5:33.25 |     44074    |    69073
        4  | 15:20.74 |  4:25.65 |     69074    |    89013
        5  | 19:46.64 |  5:02.42 |     89014    |   111705
        6  | 24:49.31 |  5:53.65 |    111706    |   138245
        7  | 30:43.21 |  5:37.50 |    138246    |   163570
        8  | 36:20.71 |  4:07.07 |    163571    |   182102
        9  | 40:28.03 |  6:42.33 |    182103    |   212285
Track  1
     Filename G:\EAC Temporare\01 The Voice (Radio Version).wav
     Pre-gap length  0:00:02.00
     Peak level 100.0 %
     Track quality 100.0 %
     Test CRC 73239E2E
     Copy CRC 73239E2E
     Accurately ripped (confidence 3)  [6FF2412D]
     Copy OK
Track  2
     Filename G:\EAC Temporare\02 Sunburst (Stomp Mix).wav
     Pre-gap length  0:00:02.00
     Peak level 100.0 %
     Track quality 100.0 %
     Test CRC 09D5E51B
     Copy CRC 09D5E51B
     Accurately ripped (confidence 3)  [C244108D]
     Copy OK
Track  3
     Filename G:\EAC Temporare\03 The Voice (Extended Version).wav
     Pre-gap length  0:00:02.00
     Peak level 100.0 %
     Track quality 100.0 %
     Test CRC C18B49CD
     Copy CRC C18B49CD
     Accurately ripped (confidence 3)  [BA40616A]
     Copy OK
Track  4
     Filename G:\EAC Temporare\04 0361 (Electrocity Festival Version).wav
     Pre-gap length  0:00:02.00
     Peak level 100.0 %
     Track quality 100.0 %
     Test CRC FA814224
     Copy CRC FA814224
     Accurately ripped (confidence 3)  [4EF12FA9]
     Copy OK
Track  5
     Filename G:\EAC Temporare\05 The Voice (And One Re-Interpretation).wav
     Pre-gap length  0:00:02.00
     Peak level 100.0 %
     Track quality 100.0 %
     Test CRC 6018101E
     Copy CRC 6018101E
     Accurately ripped (confidence 3)  [D5EED420]
     Copy OK
Track  6
     Filename G:\EAC Temporare\06 The Voice (Beborn Beton Remix).wav
     Pre-gap length  0:00:02.00
     Peak level 100.0 %
     Track quality 100.0 %
     Test CRC CFEA2614
     Copy CRC CFEA2614
     Accurately ripped (confidence 3)  [88F50C95]
     Copy OK
Track  7
     Filename G:\EAC Temporare\07 The Voice (Cycletribe Remix).wav
     Pre-gap length  0:00:02.00
     Peak level 100.0 %
     Track quality 100.0 %
     Test CRC B57C91EB
     Copy CRC B57C91EB
     Accurately ripped (confidence 3)  [B12A04F4]
     Copy OK
Track  8
     Filename G:\EAC Temporare\08 The Voice (Wumpscut Remix).wav
     Pre-gap length  0:00:02.00
     Peak level 100.0 %
     Track quality 100.0 %
     Test CRC 0F8ED5E3
     Copy CRC 0F8ED5E3
     Accurately ripped (confidence 3)  [D44201CD]
     Copy OK
Track  9
     Filename G:\EAC Temporare\09 The Voice (Cut.Rate.Box. Remix).wav
     Pre-gap length  0:00:02.00
     Peak level 100.0 %
     Track quality 100.0 %
     Test CRC 2C06BB06
     Copy CRC 2C06BB06
     Accurately ripped (confidence 3)  [0008F482]
     Copy OK
All tracks accurately ripped
No errors occurred
End of status report

Зарелизено на rutracker.org

на раздаче ВСЕГДА в нерабочее время (вечер, ночь, выходные), в остальное время как получится
Правила, инструкции, FAQ!!!
Торрент  Добавлен [26 июн 2020, 17:34] Скачать торрент Магнет ссылка
Скачать торрент
[ Размер 14.6 КБ / Просмотров 8 ]

Статус
Проверен 
 
Размер  335.32 МБ
Приватный: Нет (DHT включён)
.torrent скачан  0
 


     Отправить личное сообщение
   
Страница 1 из 1
Показать сообщения за:  Поле сортировки  
Начать новую тему Ответить на тему


Сейчас этот форум просматривают: нет зарегистрированных пользователей и гости: 0


Вы не можете начинать темы
Вы не можете отвечать на сообщения
Вы не можете редактировать свои сообщения
Вы не можете удалять свои сообщения
Вы не можете добавлять вложения

Перейти:  
cron