Начать новую тему Ответить на тему
Статистика раздачи
Размер: 264.25 МБ | Добавлен: 26 июн 2020, 19:18 | Скачали: 0
Сидеров: 1  [0 байт/сек]    Личеров: 0  [0 байт/сек]
Пред. тема | След. тема 

Автор
Сообщение

СообщениеДобавлено: 26 июн 2020, 19:18 

Ответить с цитатой 

Anthony Rother - Biomechanik
Лэйбл: Psi49net
Каталог#: PSI008CD
Жанр: Electro
Год выпуска диска: 2001
Производитель диска: Germany
Аудио кодек: FLAC
Тип рипа: image+.cue
Битрейт аудио: lossless
Продолжительность: 00:34:10
Трэклист:
01 Biomechanik (Larry Mccormick Mix) (6:47)
02 Biomechanik (E-Master Mix) (6:01)
03 Biomechanik (Anthony Rother Mix) (8:57)
04 Biomechanik (Chris Zander Mix) (5:29)
05 Biomechanik (Si Com Mix) (4:07)
06 Biomechanik (Video Mix) (2:47)
(Includes the Biomechanik video).
Доп. информация: http://www.discogs.com/Anthony-Rother-Biomechanik/release/13841
EAC extraction logfile from 5. January 2006, 21:48 for CD
Anthony Rother / Biomechanik
Used drive : _NEC DVD_RW ND-1300A Adapter: 4 ID: 0
Read mode : Secure with NO C2, accurate stream, disable cache
Read offset correction : 48
Overread into Lead-In and Lead-Out : No
Used output format : Internal WAV Routines
44.100 Hz; 16 Bit; Stereo
Other options :
Fill up missing offset samples with silence : Yes
Delete leading and trailing silent blocks : No
Installed external ASPI interface
Range status and errors
Selected range
Filename Z:\Anthony Rother - Biomechanik.wav
Peak level 97.7 %
Range quality 100.0 %
CRC 784B44F1
Copy OK
No errors occured
End of status report
Код:
Код:
REM GENRE Electronic
REM DATE 2001
REM DISCID 560A0307
REM COMMENT "ExactAudioCopy v0.95b2"
PERFORMER "Anthony Rother"
TITLE "Biomechanik"
FILE "Anthony Rother - Biomechanik.flac" WAVE
  TRACK 01 AUDIO
    TITLE "Biomechanik (Larry McCormick Mix)"
    PERFORMER "Anthony Rother"
    INDEX 01 00:00:00
  TRACK 02 AUDIO
    TITLE "Biomechanik (E-Master Mix)"
    PERFORMER "Anthony Rother"
    INDEX 00 06:45:08
    INDEX 01 06:47:08
  TRACK 03 AUDIO
    TITLE "Biomechanik (Anthony Rother Mix)"
    PERFORMER "Anthony Rother"
    INDEX 00 12:46:19
    INDEX 01 12:48:19
  TRACK 04 AUDIO
    TITLE "Biomechanik (Chris Zander Mix)"
    PERFORMER "Anthony Rother"
    INDEX 00 21:43:25
    INDEX 01 21:45:25
  TRACK 05 AUDIO
    TITLE "Biomechanik (Si Com Mix)"
    PERFORMER "Anthony Rother"
    INDEX 00 27:13:00
    INDEX 01 27:15:00
  TRACK 06 AUDIO
    TITLE "Biomechanik (Video Mix)"
    PERFORMER "Anthony Rother"
    INDEX 00 31:20:66
    INDEX 01 31:22:66
[/spoiler]
Правила, инструкции, FAQ!!!
Торрент  Добавлен [26 июн 2020, 19:18] Скачать торрент Магнет ссылка
Скачать торрент
[ Размер 11 КБ / Просмотров 11 ]

Статус
Проверен 
 
Размер  264.25 МБ
Приватный: Нет (DHT включён)
.torrent скачан  0
 


     Отправить личное сообщение
   
Страница 1 из 1
Показать сообщения за:  Поле сортировки  
Начать новую тему Ответить на тему


Сейчас этот форум просматривают: нет зарегистрированных пользователей и гости: 0


Вы не можете начинать темы
Вы не можете отвечать на сообщения
Вы не можете редактировать свои сообщения
Вы не можете удалять свои сообщения
Вы не можете добавлять вложения

Перейти:  
cron