Начать новую тему Ответить на тему
Статистика раздачи
Размер: 331.21 МБ | Добавлен: 26 июн 2020, 16:59 | Скачали: 0
Сидеров: 0  [0 байт/сек]    Личеров: 0  [0 байт/сек]
Пред. тема | След. тема 

Автор
Сообщение

СообщениеДобавлено: 26 июн 2020, 16:59 

Ответить с цитатой 

Trauma - Fractal I
Жанр: Electro, Ambient
Год выпуска диска: 1993
Производитель диска: Германия
Аудио кодек: APE
Тип рипа: image+.cue
Битрейт аудио: lossless
Продолжительность: 00:55:03
Трэклист:
01.Julian
02.Before The Silence
03.Open Your Mind
04.Machine Love
05.The City Sleeps
06.Dune
07.Trust Me
08.The Last Rose
09.Radioaktivität ( Written By - Kraftwerk )
10.We Are Moving
Код:
Exact Audio Copy V0.99 prebeta 5 from 4. May 2009
Отчёт EAC об извлечении, выполненном 24. июля 2009, 15:30
Trauma / Fractal 1
Дисковод: Optiarc DVD RW AD-7201S   Adapter: 1  ID: 1
Режим чтения                 : Достоверность
Использование точного потока : Да
Отключение кэша аудио        : Да
Использование указателей C2  : Нет
Коррекция смещения при чтении                     : 48
Способность читать области Lead-in и Lead-out     : Нет
Заполнение пропущенных сэмплов тишиной            : Да
Удаление блоков с тишиной в начале и конце        : Нет
При вычислениях CRC использовались нулевые сэмплы : Да
Интерфейс                                         : Установленный внешний ASPI-интерфейс
Выходной формат : Внутренние WAV-операции
Формат сэмплов  : 44.100 Гц; 16 бит; стерео
TOC извлечённого CD
     Трек |   Старт  | Длительность | Начальный сектор | Конечный сектор
    ---------------------------------------------------------------------
       1  |  0:00.00 |    5:31.38   |           0      |      24862
       2  |  5:31.38 |    4:55.07   |       24863      |      46994
       3  | 10:26.45 |    5:13.70   |       46995      |      70539
       4  | 15:40.40 |    5:32.58   |       70540      |      95497
       5  | 21:13.23 |    5:34.15   |       95498      |     120562
       6  | 26:47.38 |    4:22.30   |      120563      |     140242
       7  | 31:09.68 |    5:10.62   |      140243      |     163554
       8  | 36:20.55 |    5:37.28   |      163555      |     188857
       9  | 41:58.08 |    5:20.67   |      188858      |     212924
      10  | 47:19.00 |    5:45.74   |      212925      |     238873
Характеристики диапазона извлечения и сообщения об ошибках
Выбранный диапазон
     Имя файла D:\Documents and Settings\Rodexx\Рабочий стол\Trauma-Fractal1\Trauma - Fractal 1.wav
     Пиковый уровень 98.4 %
     Качество диапазона 100.0 %
     CRC копии 469F1CDE
     Копирование... OK
Ошибок не произошло
Конец отчёта
Label:Machinery Records
Catalog#:MA 40-2
Format:CD, Album
Country:Germany
Released:1993
Genre:Electronic
Style:Electro, Ambient
Абсолютно эталлонный Electro в стиле и духе культовых Clock DVA , очень редкое издание
Правила, инструкции, FAQ!!!
Торрент  Добавлен [26 июн 2020, 16:59] Скачать торрент Магнет ссылка
Скачать торрент
[ Размер 13.67 КБ / Просмотров 12 ]

Статус
Проверен 
 
Размер  331.21 МБ
Приватный: Нет (DHT включён)
.torrent скачан  0
 


     Отправить личное сообщение
   
Страница 1 из 1
Показать сообщения за:  Поле сортировки  
Начать новую тему Ответить на тему


Сейчас этот форум просматривают: нет зарегистрированных пользователей и гости: 0


Вы не можете начинать темы
Вы не можете отвечать на сообщения
Вы не можете редактировать свои сообщения
Вы не можете удалять свои сообщения
Вы не можете добавлять вложения

Перейти:  
cron