Начать новую тему Ответить на тему
Статистика раздачи
Размер: 344.22 МБ | Добавлен: 26 июн 2020, 17:02 | Скачали: 0
Сидеров: 0  [0 байт/сек]    Личеров: 0  [0 байт/сек]
Пред. тема | След. тема 

Автор
Сообщение

СообщениеДобавлено: 26 июн 2020, 17:02 

Ответить с цитатой 

Trauma - Construct
Жанр: Electro, Ambient
Год выпуска диска: 1994
Производитель диска: Германия
Аудио кодек: APE
Тип рипа: image+.cue
Битрейт аудио: lossless
Трэклист:
01.We Are Machine
02.Into The Deep Blue (Dolphins)
03.The Tunnel
04.Control
05.Mindprogramm
06.In The Shadow Of The Sun
07.Neurosis
08.Synthesis
09.Heaven's Gate
10.Le Chant De La Baleine
Код:
Exact Audio Copy V0.99 prebeta 5 from 4. May 2009
Отчёт EAC об извлечении, выполненном 24. июля 2009, 16:20
Trauma / Construct
Дисковод: Optiarc DVD RW AD-7201S   Adapter: 1  ID: 1
Режим чтения                 : Достоверность
Использование точного потока : Да
Отключение кэша аудио        : Да
Использование указателей C2  : Нет
Коррекция смещения при чтении                     : 48
Способность читать области Lead-in и Lead-out     : Нет
Заполнение пропущенных сэмплов тишиной            : Да
Удаление блоков с тишиной в начале и конце        : Нет
При вычислениях CRC использовались нулевые сэмплы : Да
Интерфейс                                         : Установленный внешний ASPI-интерфейс
Выходной формат : Внутренние WAV-операции
Формат сэмплов  : 44.100 Гц; 16 бит; стерео
TOC извлечённого CD
     Трек |   Старт  | Длительность | Начальный сектор | Конечный сектор
    ---------------------------------------------------------------------
       1  |  0:00.00 |    6:05.10   |           0      |      27384
       2  |  6:05.10 |    4:44.20   |       27385      |      48704
       3  | 10:49.30 |    8:32.35   |       48705      |      87139
       4  | 19:21.65 |    4:13.52   |       87140      |     106166
       5  | 23:35.42 |    3:58.23   |      106167      |     124039
       6  | 27:33.65 |    5:43.72   |      124040      |     149836
       7  | 33:17.62 |    4:37.15   |      149837      |     170626
       8  | 37:55.02 |    5:32.68   |      170627      |     195594
       9  | 43:27.70 |    4:50.12   |      195595      |     217356
      10  | 48:18.07 |    6:22.72   |      217357      |     246078
Характеристики диапазона извлечения и сообщения об ошибках
Выбранный диапазон
     Имя файла D:\Documents and Settings\Rodexx\Рабочий стол\Trauma - Construct\Trauma - Construct.wav
     Пиковый уровень 100.0 %
     Качество диапазона 99.9 %
     CRC копии C0D72E11
     Копирование... OK
Ошибок не произошло
Конец отчёта
 
Label:Machinery Records
Catalog#:MA 54-2
Format:CD, Album
Country:Germany
Released:1994
Genre:Electronic
Style:Electro, Ambient
Правила, инструкции, FAQ!!!
Торрент  Добавлен [26 июн 2020, 17:02] Скачать торрент Магнет ссылка
Скачать торрент
[ Размер 14.18 КБ / Просмотров 3 ]

Статус
Проверен 
 
Размер  344.22 МБ
Приватный: Нет (DHT включён)
.torrent скачан  0
 


     Отправить личное сообщение
   
Страница 1 из 1
Показать сообщения за:  Поле сортировки  
Начать новую тему Ответить на тему


Сейчас этот форум просматривают: нет зарегистрированных пользователей и гости: 0


Вы не можете начинать темы
Вы не можете отвечать на сообщения
Вы не можете редактировать свои сообщения
Вы не можете удалять свои сообщения
Вы не можете добавлять вложения

Перейти:  
cron