Начать новую тему Ответить на тему
Статистика раздачи
Размер: 383.4 МБ | Добавлен: 26 июн 2020, 20:06 | Скачали: 0
Сидеров: 0  [0 байт/сек]    Личеров: 0  [0 байт/сек]
Пред. тема | След. тема 

Автор
Сообщение

СообщениеДобавлено: 26 июн 2020, 20:06 

Ответить с цитатой 

Patenbrigade: Wolff - Baustoff [Popmusik Für Rohleger]
Жанр: electro ambient
Год выпуска диска: 2009
Производитель диска: (Zweieck Recordings, Germany)
Аудио кодек: FLAC
Тип рипа: image+.cue
Битрейт аудио: lossless
Продолжительность: 57:01.01
Трэклист:
01. Aufbau [0:45]
02. Das Kraftfeld (feat. André Hartung) [3:34]
03. IM: Benecke (feat. Dr. Mark Benecke) [3:58]
04. Fehler 404 (feat. Stefan Leukert) [3:51]
05. Unfall Mit Folgen (feat. Dr. Mark Benecke) [1:17]
06. My Mountain (feat. Nadine Stelzer) [4:16]
07. Luftzerlegungsanlage LZA (feat. Dr. Mark Benecke) [3:31]
08. Never Neverland (feat. André Hartung) [3:43]
09. Arbeit An Der Oberleitung [2:58]
10. Sun After The Rain (feat. Julia Beyer) [4:53]
11. Dreh Mir Die Zeit Zurück (feat. Antje Schulz) [4:15]
12. Anklage: Blitzschlag (feat. Dr. Mark Benecke) [2:07]
13. Voyage (feat. Antje Dieckmann) [4:25]
14. Erstickt Im Freien (feat. Dr. Mark Benecke) [1:24]
15. Popmusik Für Rohrleger [4:07]
16. Betondecke (feat. Dr. Mark Benecke) [1:15]
17. Abrissbude (feat. Alexander Pitzinger) [3:29]
18. Die Walze (feat. Dr. Mark Benecke) [1:49]
19. Abbau [1:23]
Код:
Exact Audio Copy V0.99 prebeta 5 from 4. May 2009
Отчёт EAC об извлечении, выполненном 16. января 2010, 20:17
Patenbrigade: Wolff / Baustoff (Popmusik Fur Rohrleger)
Дисковод: Optiarc DVD RW AD-7173A   Adapter: 0  ID: 0
Режим чтения                 : Достоверность
Использование точного потока : Да
Отключение кэша аудио        : Да
Использование указателей C2  : Нет
Коррекция смещения при чтении                     : 48
Способность читать области Lead-in и Lead-out     : Нет
Заполнение пропущенных сэмплов тишиной            : Да
Удаление блоков с тишиной в начале и конце        : Нет
При вычислениях CRC использовались нулевые сэмплы : Да
Интерфейс                                         : Установленный внешний ASPI-интерфейс
Выходной формат          : Пользовательский кодировщик
Выбранный битрейт        : 1024 kBit/s
Качество                 : Высокий
Добавление ID3-тэга      : Нет
Утилита сжатия           : C:\Program Files\Exact Audio Copy\Flac\flac.exe
Дополнительные параметры : -6 -V -T "ARTIST=%a" -T "TITLE=%t" -T "ALBUM=%g" -T "DATE=%y" -T "TRACKNUMBER=%n" -T "GENRE=%m" -T "COMMENT=%e" %s -o %d
TOC извлечённого CD
     Трек |   Старт  | Длительность | Начальный сектор | Конечный сектор
    ---------------------------------------------------------------------
       1  |  0:00.00 |    0:45.17   |           0      |       3391
       2  |  0:45.17 |    3:34.29   |        3392      |      19470
       3  |  4:19.46 |    3:58.14   |       19471      |      37334
       4  |  8:17.60 |    3:50.66   |       37335      |      54650
       5  | 12:08.51 |    1:17.09   |       54651      |      60434
       6  | 13:25.60 |    4:16.14   |       60435      |      79648
       7  | 17:41.74 |    3:31.10   |       79649      |      95483
       8  | 21:13.09 |    3:43.20   |       95484      |     112228
       9  | 24:56.29 |    2:58.35   |      112229      |     125613
      10  | 27:54.64 |    4:52.45   |      125614      |     147558
      11  | 32:47.34 |    4:14.69   |      147559      |     166677
      12  | 37:02.28 |    2:07.09   |      166678      |     176211
      13  | 39:09.37 |    4:24.71   |      176212      |     196082
      14  | 43:34.33 |    1:23.54   |      196083      |     202361
      15  | 44:58.12 |    4:07.09   |      202362      |     220895
      16  | 49:05.21 |    1:15.11   |      220896      |     226531
      17  | 50:20.32 |    3:28.63   |      226532      |     242194
      18  | 53:49.20 |    1:48.44   |      242195      |     250338
      19  | 55:37.64 |    1:23.12   |      250339      |     256575
Характеристики диапазона извлечения и сообщения об ошибках
Выбранный диапазон
     Имя файла H:\СКАЧКА\FLAC\1 TORRENT\Patenbrigade  Wolff - Baustoff (Popmusik Fur Rohrleger).wav
     Пиковый уровень 100.0 %
     Качество диапазона 100.0 %
     CRC теста 13F7AB09
     CRC копии 13F7AB09
     Копирование... OK
Ошибок не произошло
AccurateRip: сводка
Трек  1  нет в базе данных
Трек  2  нет в базе данных
Трек  3  нет в базе данных
Трек  4  нет в базе данных
Трек  5  нет в базе данных
Трек  6  нет в базе данных
Трек  7  нет в базе данных
Трек  8  нет в базе данных
Трек  9  нет в базе данных
Трек 10  нет в базе данных
Трек 11  нет в базе данных
Трек 12  нет в базе данных
Трек 13  нет в базе данных
Трек 14  нет в базе данных
Трек 15  нет в базе данных
Трек 16  нет в базе данных
Трек 17  нет в базе данных
Трек 18  нет в базе данных
Трек 19  нет в базе данных
Ни одного трека нет в базе AccurateRip
Конец отчёта
Хочешь скачать, но не можешь из-за отсутствия сидов - пиши в личку!
Правила, инструкции, FAQ!!!
Торрент  Добавлен [26 июн 2020, 20:06] Скачать торрент Магнет ссылка
Скачать торрент
[ Размер 16.11 КБ / Просмотров 7 ]

Статус
Проверен 
 
Размер  383.4 МБ
Приватный: Нет (DHT включён)
.torrent скачан  0
 


     Отправить личное сообщение
   
Страница 1 из 1
Показать сообщения за:  Поле сортировки  
Начать новую тему Ответить на тему


Сейчас этот форум просматривают: нет зарегистрированных пользователей и гости: 0


Вы не можете начинать темы
Вы не можете отвечать на сообщения
Вы не можете редактировать свои сообщения
Вы не можете удалять свои сообщения
Вы не можете добавлять вложения

Перейти:  
cron