Начать новую тему Ответить на тему
Статистика раздачи
Размер: 1.11 ГБ | Добавлен: 26 июн 2020, 20:19 | Скачали: 0
Сидеров: 0  [0 байт/сек]    Личеров: 3  [0 байт/сек]
Пред. тема | След. тема 

Автор
Сообщение

СообщениеДобавлено: 26 июн 2020, 20:19 

Ответить с цитатой 

Zombie Girl / Дискография (3 Релиза|2006-2009)
Жанр: EBM
Страна-производитель диска: Belgium
Год издания диска: 2006-2009
Издатель (лейбл): Alfa Matrix
Страна: Canada
Аудио кодек: FLAC (*.flac)
Тип рипа: tracks+.cue
Битрейт аудио: lossless
Источник (релизер): собственные диски
Zombie Girl - это новый проект Sebastian Komor (Icon of Coil, Brudershaft, Muscle & Hate) и его жены Renee Cooper-Komor, и как показывает действительность достаточно успешный. EP ‘Back From The Dead’ уже дал нам такие клубные хиты, как ‘We Are The Ones’, ‘Bleeder’ и ‘Creepy Crawler’, а теперь и первый полноценный альбом Blood Brains And Rock'n'Roll доступен взыскательным слушателям. Тяжёлая электро танцевальная музыка с чарующим женским вокалом и не слишком серьёзным хоррор привкусом тем о зомби - вот то, что обещает само название группы, как и треки сами по себе. Следующим танцевальным хитом стала песня ‘Jesus Was a Zombie’. Потом появляется ‘Creature of the Night’, с несколько замедленным ритмом, дающим Renee показать возможности своего голоса, оставаясь танцевальной. Sebastian Komor, как показал нам проект Zombie Girl может работать в различных музыкальных стилях. В песне ‘Go Zombie’ он великолепно использует TBM подход, а в ‘Gonna Getcha’ выходит на сцену electroclash. Агрессивный трек с названием ‘The Darkness’, несколько напоминает группу KMFDM. Что заметно с первого взгляда, это то, что во всех треках и записях Sebastian Komor использует очень качественные и интересные сэмплы и звуки, дающие записям огромный потенциал при коммерческих релизах.
Рене Купер и фанаты
- Привет, Рене! Спасибо за уделенное время. Как ты знаешь, не так давно американские политики вознамерились защитить звезд кино и эстрады. В Штатах активно обсуждается принятие так называемого "закона Бритни", согласно которому к известным людям нельзя будет подходить ближе, чем на 18 метров. В этом есть определенная доля логики, направленная на протекцию от агрессивной желтой прессы и сумасшедших поклонников. Как ты лично можешь прокомментировать эту инициативу изнутри своего личного пространства и зоны комфорта Zombie Girl?
- Привет! Из чувства женской солидарности я считаю, что подобный закон должен быть принят. Мне самой приходилось сталкиваться с ситуациями, когда вокруг нас собиралась куча народу в то время, как мы пытались поесть в какой-то пельменной; они постоянно фотографировали наши действия, пялились на нас как в зоопарке, одновременно звоня по мобильным телефонам и рассказывая своим друзьям, с кем они столкнулись и чем мы питаемся в неволе. Все это очень докучливо и навязчиво, я начинаю чувствовать себя некомфортно. Я помню, что тогда я просто бросила есть, хотя все было очень вкусно приготовлено, все из-за тех идиотов, которые узнали нас и окружили со всех сторон со своими дурацкими "мыльницами". Кому нужны эти фотографии, на которых, например, я или мой муж Себа Комор отдаемся процессу поглощения пищи? Или кому было бы приятно видеть вокруг себя постоянно мельтешащих и суетящихся людей, когда ты пытаешься отдохнуть? Всему свое место и время, это касается и фотографий с автографами, поэтому должно присутствовать чувство меры и корректности по отношению к артистам. Может быть, дать им шанс закончить обед? И оставить Бритни в покое!?
#777Название: Back From The Dead
Год издания диска: 2006
Номер по каталогу: AM1077EPCD
Продолжительность: 32:03
Наличие сканов в содержимом раздачи: нет
Треклист:
1 Creepy Crawler 3:58
2 We Are The Ones 4:24
3 Bleeder 4:28
4 I Want It 4:20
5 Creepy Crawler (KMFDM Remix) 3:38
6 I Want It (Soman Remix) 4:32
7 We Are The Ones (Rotting Corpse Mix By IOC/Seb) 6:39
Код:
Exact Audio Copy V0.99 prebeta 5 from 4. May 2009
EAC extraction logfile from 7. January 2011, 3:13
Zombie Girl / Back From The Dead
Used drive  : PIONEER DVD-RW  DVR-218L   Adapter: 0  ID: 0
Read mode               : Secure
Utilize accurate stream : Yes
Defeat audio cache      : Yes
Make use of C2 pointers : No
Read offset correction                      : 6
Overread into Lead-In and Lead-Out          : No
Fill up missing offset samples with silence : Yes
Delete leading and trailing silent blocks   : No
Null samples used in CRC calculations       : Yes
Used interface                              : Installed external ASPI interface
Gap handling                                : Appended to previous track
Used output format              : User Defined Encoder
Selected bitrate                : 320 kBit/s
Quality                         : High
Add ID3 tag                     : No
Command line compressor         : C:\Program Files\Exact Audio Copy\Flac\flac.exe
Additional command line options : -8 -V -T "ARTIST=%a" -T "TITLE=%t" -T "ALBUM=%g" -T "DATE=%y" -T "TRACKNUMBER=%n" -T "GENRE=%m" -T "COMMENT=EAC FLAC -8" %s
TOC of the extracted CD
     Track |   Start  |  Length  | Start sector | End sector
    ---------------------------------------------------------
        1  |  0:00.00 |  3:58.28 |         0    |    17877
        2  |  3:58.28 |  4:24.30 |     17878    |    37707
        3  |  8:22.58 |  4:28.58 |     37708    |    57865
        4  | 12:51.41 |  4:20.41 |     57866    |    77406
        5  | 17:12.07 |  3:38.69 |     77407    |    93825
        6  | 20:51.01 |  4:32.62 |     93826    |   114287
        7  | 25:23.63 |  6:39.63 |    114288    |   144275
Track  1
     Filename C:\Music\ZZZ Soulseek\(2006) Zombie Girl - Back From The Dead (lossless)\01 Creepy Crawler.wav
     Pre-gap length  0:00:02.00
     Peak level 100.0 %
     Track quality 100.0 %
     Test CRC B6A62797
     Copy CRC B6A62797
     Accurately ripped (confidence 5)  [B8E2BB32]
     Copy OK
Track  2
     Filename C:\Music\ZZZ Soulseek\(2006) Zombie Girl - Back From The Dead (lossless)\02 We Are The Ones.wav
     Pre-gap length  0:00:02.00
     Peak level 100.0 %
     Track quality 100.0 %
     Test CRC 4CA75B99
     Copy CRC 4CA75B99
     Accurately ripped (confidence 5)  [752833DB]
     Copy OK
Track  3
     Filename C:\Music\ZZZ Soulseek\(2006) Zombie Girl - Back From The Dead (lossless)\03 Bleeder.wav
     Pre-gap length  0:00:02.00
     Peak level 100.0 %
     Track quality 100.0 %
     Test CRC A0F02D38
     Copy CRC A0F02D38
     Accurately ripped (confidence 5)  [4BD9A404]
     Copy OK
Track  4
     Filename C:\Music\ZZZ Soulseek\(2006) Zombie Girl - Back From The Dead (lossless)\04 I Want It.wav
     Pre-gap length  0:00:02.00
     Peak level 100.0 %
     Track quality 100.0 %
     Test CRC A9577ED0
     Copy CRC A9577ED0
     Accurately ripped (confidence 5)  [0DB5D039]
     Copy OK
Track  5
     Filename C:\Music\ZZZ Soulseek\(2006) Zombie Girl - Back From The Dead (lossless)\05 Creepy Crawler (KMFDM Mix).wav
     Pre-gap length  0:00:02.00
     Peak level 100.0 %
     Track quality 100.0 %
     Test CRC FE675837
     Copy CRC FE675837
     Accurately ripped (confidence 5)  [1A0CB500]
     Copy OK
Track  6
     Filename C:\Music\ZZZ Soulseek\(2006) Zombie Girl - Back From The Dead (lossless)\06 I Want It (Soman Remix).wav
     Pre-gap length  0:00:02.00
     Peak level 100.0 %
     Track quality 100.0 %
     Test CRC 2DA8A796
     Copy CRC 2DA8A796
     Accurately ripped (confidence 5)  [67384392]
     Copy OK
Track  7
     Filename C:\Music\ZZZ Soulseek\(2006) Zombie Girl - Back From The Dead (lossless)\07 We Are The Ones (Rotting Corpse Mix By IOC,Seb).wav
     Pre-gap length  0:00:02.00
     Peak level 100.0 %
     Track quality 100.0 %
     Test CRC F5172DF9
     Copy CRC F5172DF9
     Accurately ripped (confidence 5)  [0A908388]
     Copy OK
All tracks accurately ripped
No errors occurred
End of status report
Код:
REM GENRE EBM
REM DATE 2006
REM DISCID 42078307
REM COMMENT "ExactAudioCopy v0.99pb5"
PERFORMER "Zombie Girl"
TITLE "Back From The Dead"
FILE "01 Creepy Crawler.wav" WAVE
  TRACK 01 AUDIO
    TITLE "Creepy Crawler"
    PERFORMER "Zombie Girl"
    FLAGS DCP
    INDEX 01 00:00:00
  TRACK 02 AUDIO
    TITLE "We Are The Ones"
    PERFORMER "Zombie Girl"
    FLAGS DCP
    INDEX 00 03:56:28
FILE "02 We Are The Ones.wav" WAVE
    INDEX 01 00:00:00
  TRACK 03 AUDIO
    TITLE "Bleeder"
    PERFORMER "Zombie Girl"
    FLAGS DCP
    INDEX 00 04:22:30
FILE "03 Bleeder.wav" WAVE
    INDEX 01 00:00:00
  TRACK 04 AUDIO
    TITLE "I Want It"
    PERFORMER "Zombie Girl"
    FLAGS DCP
    INDEX 00 04:26:58
FILE "04 I Want It.wav" WAVE
    INDEX 01 00:00:00
  TRACK 05 AUDIO
    TITLE "Creepy Crawler (KMFDM Mix)"
    PERFORMER "Zombie Girl"
    FLAGS DCP
    INDEX 00 04:18:41
FILE "05 Creepy Crawler (KMFDM Mix).wav" WAVE
    INDEX 01 00:00:00
  TRACK 06 AUDIO
    TITLE "I Want It (Soman Remix)"
    PERFORMER "Zombie Girl"
    FLAGS DCP
    INDEX 00 03:36:69
FILE "06 I Want It (Soman Remix).wav" WAVE
    INDEX 01 00:00:00
  TRACK 07 AUDIO
    TITLE "We Are The Ones (Rotting Corpse Mix By IOC/Seb)"
    PERFORMER "Zombie Girl"
    FLAGS DCP
    INDEX 00 04:30:62
FILE "07 We Are The Ones (Rotting Corpse Mix By IOC,Seb).wav" WAVE
    INDEX 01 00:00:00
#777Название: Blood, Brains & Rock'n'Roll (2 CD)
Год издания диска: 2007
Номер по каталогу: AM-2087-DCD
Продолжительность: 1:53:44
Наличие сканов в содержимом раздачи: нет
Треклист:
1-01 Blood, Brains & Rock'n'roll 4:27
1-02 Jesus Was A Zombie 4:11
1-03 Creature Of Night 4:27
1-04 Living Dead Superstars 4:33
1-05 Go Zombie 5:39
1-06 Creepy Crawler (Album Edit) 3:18
1-07 Dance Of The Headless Corpse 3:38
1-08 The Darkness 5:02
1-09 Today 3:57
1-10 Gonna Getcha 3:54
1-11 Funeral Pyre 4:27
1-12 Prey 3:52
1-13 Fading Away (ZG Version) 4:44
1-14 Untitled 4:27
2-01 Bonesniffer 3:40
2-02 Jesus Was A Zombie (Disposable Heads Mix) 3:57
2-03 Bleeder (Industrial Strength Mix) 5:43
2-04 Symphony Of The Living Dead Part I 2:36
2-05 Symphony Of The Living Dead Part II 4:20
2-06 Trioxin (Instru-mental) 3:59
2-07 We Are The Ones (Lounge Version) 4:33
2-08 Sex (I'm A) 3:51
2-09 Elsie 5:26
2-10 Screams From The Cemetery 4:53
2-11 House Of The 1000 Corpses 3:59
2-12 Flesheaters Online ( Message To The World) 5:59
Код:
Exact Audio Copy V0.99 prebeta 5 from 4. May 2009
EAC extraction logfile from 7. January 2011, 14:00
Zombie Girl / Blood, Brains & Rock'n'Roll
Used drive  : PIONEER DVD-RW  DVR-218L   Adapter: 0  ID: 0
Read mode               : Secure
Utilize accurate stream : Yes
Defeat audio cache      : Yes
Make use of C2 pointers : No
Read offset correction                      : 6
Overread into Lead-In and Lead-Out          : No
Fill up missing offset samples with silence : Yes
Delete leading and trailing silent blocks   : No
Null samples used in CRC calculations       : Yes
Used interface                              : Installed external ASPI interface
Gap handling                                : Appended to previous track
Used output format              : User Defined Encoder
Selected bitrate                : 320 kBit/s
Quality                         : High
Add ID3 tag                     : No
Command line compressor         : C:\Program Files\Exact Audio Copy\Flac\flac.exe
Additional command line options : -8 -V -T "ARTIST=%a" -T "TITLE=%t" -T "ALBUM=%g" -T "DATE=%y" -T "TRACKNUMBER=%n" -T "GENRE=%m" -T "COMMENT=EAC FLAC -8" %s
TOC of the extracted CD
     Track |   Start  |  Length  | Start sector | End sector
    ---------------------------------------------------------
        1  |  0:00.00 |  4:27.47 |         0    |    20071
        2  |  4:27.47 |  4:11.66 |     20072    |    38962
        3  |  8:39.38 |  4:27.62 |     38963    |    59049
        4  | 13:07.25 |  4:33.28 |     59050    |    79552
        5  | 17:40.53 |  5:39.04 |     79553    |   104981
        6  | 23:19.57 |  3:18.36 |    104982    |   119867
        7  | 26:38.18 |  3:38.28 |    119868    |   136245
        8  | 30:16.46 |  5:02.09 |    136246    |   158904
        9  | 35:18.55 |  3:57.29 |    158905    |   176708
       10  | 39:16.09 |  3:54.37 |    176709    |   194295
       11  | 43:10.46 |  4:27.21 |    194296    |   214341
       12  | 47:37.67 |  3:52.74 |    214342    |   231815
       13  | 51:30.66 |  4:44.71 |    231816    |   253186
       14  | 56:15.62 |  4:27.42 |    253187    |   273253
Track  1
     Filename C:\Music\ZZZ Soulseek\(2007) Zombie Girl - Blood, Brains & Rock'n'Roll (2 CD) (lossless)\101 Blood, Brains & Rock'n'Roll.wav
     Pre-gap length  0:00:02.00
     Peak level 98.1 %
     Track quality 99.9 %
     Test CRC DE1FB2A5
     Copy CRC DE1FB2A5
     Accurately ripped (confidence 3)  [67CA5D23]
     Copy OK
Track  2
     Filename C:\Music\ZZZ Soulseek\(2007) Zombie Girl - Blood, Brains & Rock'n'Roll (2 CD) (lossless)\102 Jesus Was A Zombie.wav
     Pre-gap length  0:00:02.00
     Peak level 98.1 %
     Track quality 100.0 %
     Test CRC 16FCC351
     Copy CRC 16FCC351
     Accurately ripped (confidence 3)  [09C5857C]
     Copy OK
Track  3
     Filename C:\Music\ZZZ Soulseek\(2007) Zombie Girl - Blood, Brains & Rock'n'Roll (2 CD) (lossless)\103 Creature Of Night.wav
     Pre-gap length  0:00:02.00
     Peak level 98.1 %
     Track quality 100.0 %
     Test CRC 28F99A3D
     Copy CRC 28F99A3D
     Accurately ripped (confidence 3)  [7E56D662]
     Copy OK
Track  4
     Filename C:\Music\ZZZ Soulseek\(2007) Zombie Girl - Blood, Brains & Rock'n'Roll (2 CD) (lossless)\104 Living Dead Superstars.wav
     Pre-gap length  0:00:02.00
     Peak level 98.1 %
     Track quality 100.0 %
     Test CRC 432DA389
     Copy CRC 432DA389
     Accurately ripped (confidence 3)  [4C939C4B]
     Copy OK
Track  5
     Filename C:\Music\ZZZ Soulseek\(2007) Zombie Girl - Blood, Brains & Rock'n'Roll (2 CD) (lossless)\105 Go Zombie.wav
     Pre-gap length  0:00:02.00
     Peak level 98.1 %
     Track quality 99.9 %
     Test CRC DB6E24AB
     Copy CRC DB6E24AB
     Accurately ripped (confidence 3)  [C8CA0312]
     Copy OK
Track  6
     Filename C:\Music\ZZZ Soulseek\(2007) Zombie Girl - Blood, Brains & Rock'n'Roll (2 CD) (lossless)\106 Creepy Crawler (Album Edit).wav
     Pre-gap length  0:00:02.00
     Peak level 98.1 %
     Track quality 100.0 %
     Test CRC FB9E964C
     Copy CRC FB9E964C
     Accurately ripped (confidence 3)  [6A737F6A]
     Copy OK
Track  7
     Filename C:\Music\ZZZ Soulseek\(2007) Zombie Girl - Blood, Brains & Rock'n'Roll (2 CD) (lossless)\107 Dance Of The Headless Corpse.wav
     Pre-gap length  0:00:02.00
     Peak level 98.1 %
     Track quality 100.0 %
     Test CRC 8F90B07D
     Copy CRC 8F90B07D
     Accurately ripped (confidence 3)  [706F1E34]
     Copy OK
Track  8
     Filename C:\Music\ZZZ Soulseek\(2007) Zombie Girl - Blood, Brains & Rock'n'Roll (2 CD) (lossless)\108 The Darkness.wav
     Pre-gap length  0:00:02.00
     Peak level 98.1 %
     Track quality 100.0 %
     Test CRC 85F40CBE
     Copy CRC 85F40CBE
     Accurately ripped (confidence 3)  [F7CED8F9]
     Copy OK
Track  9
     Filename C:\Music\ZZZ Soulseek\(2007) Zombie Girl - Blood, Brains & Rock'n'Roll (2 CD) (lossless)\109 Today.wav
     Pre-gap length  0:00:02.00
     Peak level 98.1 %
     Track quality 100.0 %
     Test CRC 536C3A8D
     Copy CRC 536C3A8D
     Accurately ripped (confidence 3)  [6F7D8501]
     Copy OK
Track 10
     Filename C:\Music\ZZZ Soulseek\(2007) Zombie Girl - Blood, Brains & Rock'n'Roll (2 CD) (lossless)\110 Gonna Getcha.wav
     Pre-gap length  0:00:02.00
     Peak level 98.1 %
     Track quality 100.0 %
     Test CRC 199542C5
     Copy CRC 199542C5
     Accurately ripped (confidence 3)  [9D5FE146]
     Copy OK
Track 11
     Filename C:\Music\ZZZ Soulseek\(2007) Zombie Girl - Blood, Brains & Rock'n'Roll (2 CD) (lossless)\111 Funeral Pyre.wav
     Pre-gap length  0:00:02.00
     Peak level 98.1 %
     Track quality 99.9 %
     Test CRC 25336A7B
     Copy CRC 25336A7B
     Accurately ripped (confidence 3)  [210C285A]
     Copy OK
Track 12
     Filename C:\Music\ZZZ Soulseek\(2007) Zombie Girl - Blood, Brains & Rock'n'Roll (2 CD) (lossless)\112 Prey.wav
     Pre-gap length  0:00:02.00
     Peak level 98.1 %
     Track quality 100.0 %
     Test CRC 3DB2353F
     Copy CRC 3DB2353F
     Accurately ripped (confidence 3)  [5E1B93A6]
     Copy OK
Track 13
     Filename C:\Music\ZZZ Soulseek\(2007) Zombie Girl - Blood, Brains & Rock'n'Roll (2 CD) (lossless)\113 Fading Away (ZG Version).wav
     Pre-gap length  0:00:02.00
     Peak level 98.1 %
     Track quality 100.0 %
     Test CRC EFFD1FD0
     Copy CRC EFFD1FD0
     Accurately ripped (confidence 3)  [6AEB130B]
     Copy OK
Track 14
     Filename C:\Music\ZZZ Soulseek\(2007) Zombie Girl - Blood, Brains & Rock'n'Roll (2 CD) (lossless)\114 Untitled.wav
     Pre-gap length  0:00:02.00
     Peak level 70.7 %
     Track quality 100.0 %
     Test CRC 37E9DFF5
     Copy CRC 37E9DFF5
     Track not present in AccurateRip database
     Copy OK
13 track(s) accurately ripped
 1 track(s) not present in the AccurateRip database
Some tracks could not be verified as accurate
No errors occurred
End of status report
Код:
REM GENRE EBM
REM DATE 2007
REM DISCID BE0E3B0E
REM COMMENT "ExactAudioCopy v0.99pb5"
PERFORMER "Zombie Girl"
TITLE "Blood, Brains & Rock'n'Roll"
FILE "101 Blood, Brains & Rock'n'Roll.wav" WAVE
  TRACK 01 AUDIO
    TITLE "Blood, Brains & Rock'n'Roll"
    PERFORMER "Zombie Girl"
    FLAGS DCP
    INDEX 01 00:00:00
  TRACK 02 AUDIO
    TITLE "Jesus Was A Zombie"
    PERFORMER "Zombie Girl"
    FLAGS DCP
    INDEX 00 04:25:47
FILE "102 Jesus Was A Zombie.wav" WAVE
    INDEX 01 00:00:00
  TRACK 03 AUDIO
    TITLE "Creature Of Night"
    PERFORMER "Zombie Girl"
    FLAGS DCP
    INDEX 00 04:09:66
FILE "103 Creature Of Night.wav" WAVE
    INDEX 01 00:00:00
  TRACK 04 AUDIO
    TITLE "Living Dead Superstars"
    PERFORMER "Zombie Girl"
    FLAGS DCP
    INDEX 00 04:25:62
FILE "104 Living Dead Superstars.wav" WAVE
    INDEX 01 00:00:00
  TRACK 05 AUDIO
    TITLE "Go Zombie"
    PERFORMER "Zombie Girl"
    FLAGS DCP
    INDEX 00 04:31:28
FILE "105 Go Zombie.wav" WAVE
    INDEX 01 00:00:00
  TRACK 06 AUDIO
    TITLE "Creepy Crawler (Album Edit)"
    PERFORMER "Zombie Girl"
    FLAGS DCP
    INDEX 00 05:37:04
FILE "106 Creepy Crawler (Album Edit).wav" WAVE
    INDEX 01 00:00:00
  TRACK 07 AUDIO
    TITLE "Dance Of The Headless Corpse"
    PERFORMER "Zombie Girl"
    FLAGS DCP
    INDEX 00 03:16:36
FILE "107 Dance Of The Headless Corpse.wav" WAVE
    INDEX 01 00:00:00
  TRACK 08 AUDIO
    TITLE "The Darkness"
    PERFORMER "Zombie Girl"
    FLAGS DCP
    INDEX 00 03:36:28
FILE "108 The Darkness.wav" WAVE
    INDEX 01 00:00:00
  TRACK 09 AUDIO
    TITLE "Today"
    PERFORMER "Zombie Girl"
    FLAGS DCP
    INDEX 00 05:00:09
FILE "109 Today.wav" WAVE
    INDEX 01 00:00:00
  TRACK 10 AUDIO
    TITLE "Gonna Getcha"
    PERFORMER "Zombie Girl"
    FLAGS DCP
    INDEX 00 03:55:29
FILE "110 Gonna Getcha.wav" WAVE
    INDEX 01 00:00:00
  TRACK 11 AUDIO
    TITLE "Funeral Pyre"
    PERFORMER "Zombie Girl"
    FLAGS DCP
    INDEX 00 03:52:37
FILE "111 Funeral Pyre.wav" WAVE
    INDEX 01 00:00:00
  TRACK 12 AUDIO
    TITLE "Prey"
    PERFORMER "Zombie Girl"
    FLAGS DCP
    INDEX 00 04:25:21
FILE "112 Prey.wav" WAVE
    INDEX 01 00:00:00
  TRACK 13 AUDIO
    TITLE "Fading Away (ZG Version)"
    PERFORMER "Zombie Girl"
    FLAGS DCP
    INDEX 00 03:50:74
FILE "113 Fading Away (ZG Version).wav" WAVE
    INDEX 01 00:00:00
  TRACK 14 AUDIO
    TITLE "Untitled"
    PERFORMER "Zombie Girl"
    FLAGS DCP
    INDEX 00 04:42:71
FILE "114 Untitled.wav" WAVE
    INDEX 01 00:00:00
Код:
Exact Audio Copy V0.99 prebeta 5 from 4. May 2009
EAC extraction logfile from 7. January 2011, 16:38
Zombie Girl / Blood, Brains & Rock'n'Roll
Used drive  : PIONEER DVD-RW  DVR-218L   Adapter: 0  ID: 0
Read mode               : Secure
Utilize accurate stream : Yes
Defeat audio cache      : Yes
Make use of C2 pointers : No
Read offset correction                      : 6
Overread into Lead-In and Lead-Out          : No
Fill up missing offset samples with silence : Yes
Delete leading and trailing silent blocks   : No
Null samples used in CRC calculations       : Yes
Used interface                              : Installed external ASPI interface
Gap handling                                : Appended to previous track
Used output format              : User Defined Encoder
Selected bitrate                : 320 kBit/s
Quality                         : High
Add ID3 tag                     : No
Command line compressor         : C:\Program Files\Exact Audio Copy\Flac\flac.exe
Additional command line options : -8 -V -T "ARTIST=%a" -T "TITLE=%t" -T "ALBUM=%g" -T "DATE=%y" -T "TRACKNUMBER=%n" -T "GENRE=%m" -T "COMMENT=EAC FLAC -8" %s
TOC of the extracted CD
     Track |   Start  |  Length  | Start sector | End sector
    ---------------------------------------------------------
        1  |  0:00.00 |  3:40.58 |         0    |    16557
        2  |  3:40.58 |  3:57.17 |     16558    |    34349
        3  |  7:38.00 |  5:43.30 |     34350    |    60104
        4  | 13:21.30 |  2:36.66 |     60105    |    71870
        5  | 15:58.21 |  4:20.19 |     71871    |    91389
        6  | 20:18.40 |  3:59.02 |     91390    |   109316
        7  | 24:17.42 |  4:33.26 |    109317    |   129817
        8  | 28:50.68 |  3:51.69 |    129818    |   147211
        9  | 32:42.62 |  5:26.19 |    147212    |   171680
       10  | 38:09.06 |  4:53.33 |    171681    |   193688
       11  | 43:02.39 |  3:59.64 |    193689    |   211677
       12  | 47:02.28 |  5:59.05 |    211678    |   238607
Track  1
     Filename C:\Music\ZZZ Soulseek\(2007) Zombie Girl - Blood, Brains & Rock'n'Roll (2 CD) (lossless)\201 Bonesniffer.wav
     Pre-gap length  0:00:02.00
     Peak level 98.1 %
     Track quality 100.0 %
     Test CRC 477ABFCB
     Copy CRC 477ABFCB
     Cannot be verified as accurate (confidence 2)  [9E3B9C12], AccurateRip returned [D6E4C27A]
     Copy OK
Track  2
     Filename C:\Music\ZZZ Soulseek\(2007) Zombie Girl - Blood, Brains & Rock'n'Roll (2 CD) (lossless)\202 Jesus Was A Zombie (Mortiis Version).wav
     Peak level 98.1 %
     Track quality 100.0 %
     Test CRC 9C2EE1CB
     Copy CRC 9C2EE1CB
     Cannot be verified as accurate (confidence 2)  [14EC216A], AccurateRip returned [00740E5E]
     Copy OK
Track  3
     Filename C:\Music\ZZZ Soulseek\(2007) Zombie Girl - Blood, Brains & Rock'n'Roll (2 CD) (lossless)\203 Bleeder (Industrial Strength Mix By Seb).wav
     Peak level 98.1 %
     Track quality 100.0 %
     Test CRC 217E214C
     Copy CRC 217E214C
     Cannot be verified as accurate (confidence 2)  [5313650C], AccurateRip returned [9719355C]
     Copy OK
Track  4
     Filename C:\Music\ZZZ Soulseek\(2007) Zombie Girl - Blood, Brains & Rock'n'Roll (2 CD) (lossless)\204 Symphony Of The Living Dead.wav
     Peak level 97.0 %
     Track quality 100.0 %
     Test CRC 80716055
     Copy CRC 80716055
     Cannot be verified as accurate (confidence 2)  [0069C8C8], AccurateRip returned [1B7862A6]
     Copy OK
Track  5
     Filename C:\Music\ZZZ Soulseek\(2007) Zombie Girl - Blood, Brains & Rock'n'Roll (2 CD) (lossless)\205 Symphony Of The Living Dead (Part II).wav
     Peak level 98.1 %
     Track quality 100.0 %
     Test CRC 45886A79
     Copy CRC 45886A79
     Cannot be verified as accurate (confidence 2)  [E4660BA6], AccurateRip returned [814A0608]
     Copy OK
Track  6
     Filename C:\Music\ZZZ Soulseek\(2007) Zombie Girl - Blood, Brains & Rock'n'Roll (2 CD) (lossless)\206 Trioxin (Instru-Mental).wav
     Peak level 96.7 %
     Track quality 100.0 %
     Test CRC B2583D9E
     Copy CRC B2583D9E
     Cannot be verified as accurate (confidence 2)  [579DE434], AccurateRip returned [D5F77010]
     Copy OK
Track  7
     Filename C:\Music\ZZZ Soulseek\(2007) Zombie Girl - Blood, Brains & Rock'n'Roll (2 CD) (lossless)\207 We Are The Ones (Lounge Version).wav
     Peak level 98.1 %
     Track quality 100.0 %
     Test CRC 3EC2F801
     Copy CRC 3EC2F801
     Cannot be verified as accurate (confidence 2)  [5A50E677], AccurateRip returned [B32E70B3]
     Copy OK
Track  8
     Filename C:\Music\ZZZ Soulseek\(2007) Zombie Girl - Blood, Brains & Rock'n'Roll (2 CD) (lossless)\208 Elsie.wav
     Peak level 98.1 %
     Track quality 100.0 %
     Test CRC B1607D04
     Copy CRC B1607D04
     Cannot be verified as accurate (confidence 2)  [F9011D8E], AccurateRip returned [F1F1D8D6]
     Copy OK
Track  9
     Filename C:\Music\ZZZ Soulseek\(2007) Zombie Girl - Blood, Brains & Rock'n'Roll (2 CD) (lossless)\209 Sex (I'm A).wav
     Peak level 98.1 %
     Track quality 100.0 %
     Test CRC 99DAB016
     Copy CRC 99DAB016
     Cannot be verified as accurate (confidence 2)  [3F853005], AccurateRip returned [31C9AF8D]
     Copy OK
Track 10
     Filename C:\Music\ZZZ Soulseek\(2007) Zombie Girl - Blood, Brains & Rock'n'Roll (2 CD) (lossless)\210 Screams From The Cemetery.wav
     Peak level 98.1 %
     Track quality 100.0 %
     Test CRC 26CCAC61
     Copy CRC 26CCAC61
     Cannot be verified as accurate (confidence 2)  [F6EC25CA], AccurateRip returned [F247D106]
     Copy OK
Track 11
     Filename C:\Music\ZZZ Soulseek\(2007) Zombie Girl - Blood, Brains & Rock'n'Roll (2 CD) (lossless)\211 House Of 1000 Corpses.wav
     Peak level 98.1 %
     Track quality 100.0 %
     Test CRC 3D5EBB70
     Copy CRC 3D5EBB70
     Cannot be verified as accurate (confidence 2)  [6D5FCBF6], AccurateRip returned [0309C286]
     Copy OK
Track 12
     Filename C:\Music\ZZZ Soulseek\(2007) Zombie Girl - Blood, Brains & Rock'n'Roll (2 CD) (lossless)\212 Flesheater's Online (A Message To The World).wav
     Peak level 98.1 %
     Track quality 100.0 %
     Test CRC 7A2878D8
     Copy CRC 7A2878D8
     Cannot be verified as accurate (confidence 2)  [961C43E4], AccurateRip returned [6BA91ADC]
     Copy OK
No tracks could be verified as accurate
You may have a different pressing from the one(s) in the database
No errors occurred
End of status report
Код:
REM GENRE EBM
REM DATE 2007
REM DISCID 960C6D0C
REM COMMENT "ExactAudioCopy v0.99pb5"
PERFORMER "Zombie Girl"
TITLE "Blood, Brains & Rock'n'Roll"
FILE "201 Bonesniffer.wav" WAVE
  TRACK 01 AUDIO
    TITLE "Bonesniffer"
    PERFORMER "Zombie Girl"
    INDEX 01 00:00:00
FILE "202 Jesus Was A Zombie (Mortiis Version).wav" WAVE
  TRACK 02 AUDIO
    TITLE "Jesus Was A Zombie (Mortiis Version)"
    PERFORMER "Zombie Girl"
    INDEX 01 00:00:00
FILE "203 Bleeder (Industrial Strength Mix By Seb).wav" WAVE
  TRACK 03 AUDIO
    TITLE "Bleeder (Industrial Strength Mix By Seb)"
    PERFORMER "Zombie Girl"
    INDEX 01 00:00:00
FILE "204 Symphony Of The Living Dead.wav" WAVE
  TRACK 04 AUDIO
    TITLE "Symphony Of The Living Dead"
    PERFORMER "Zombie Girl"
    INDEX 01 00:00:00
FILE "205 Symphony Of The Living Dead (Part II).wav" WAVE
  TRACK 05 AUDIO
    TITLE "Symphony Of The Living Dead (Part II)"
    PERFORMER "Zombie Girl"
    INDEX 01 00:00:00
FILE "206 Trioxin (Instru-Mental).wav" WAVE
  TRACK 06 AUDIO
    TITLE "Trioxin (Instru-Mental)"
    PERFORMER "Zombie Girl"
    INDEX 01 00:00:00
FILE "207 We Are The Ones (Lounge Version).wav" WAVE
  TRACK 07 AUDIO
    TITLE "We Are The Ones (Lounge Version)"
    PERFORMER "Zombie Girl"
    INDEX 01 00:00:00
FILE "208 Elsie.wav" WAVE
  TRACK 08 AUDIO
    TITLE "Elsie"
    PERFORMER "Zombie Girl"
    INDEX 01 00:00:00
FILE "209 Sex (I'm A).wav" WAVE
  TRACK 09 AUDIO
    TITLE "Sex (I'm A)"
    PERFORMER "Zombie Girl"
    INDEX 01 00:00:00
FILE "210 Screams From The Cemetery.wav" WAVE
  TRACK 10 AUDIO
    TITLE "Screams From The Cemetery"
    PERFORMER "Zombie Girl"
    INDEX 01 00:00:00
FILE "211 House Of 1000 Corpses.wav" WAVE
  TRACK 11 AUDIO
    TITLE "House Of 1000 Corpses"
    PERFORMER "Zombie Girl"
    INDEX 01 00:00:00
FILE "212 Flesheater's Online (A Message To The World).wav" WAVE
  TRACK 12 AUDIO
    TITLE "Flesheater's Online (A Message To The World)"
    PERFORMER "Zombie Girl"
    INDEX 01 00:00:00
#777Название: The Halloween EP
Год издания диска: 2009
Номер по каталогу: AM1150EPCD
Продолжительность: 37:45
Наличие сканов в содержимом раздачи: нет
Треклист:
1 Halloween '09 5:16
2 The Ones Who Walk At Night 3:18
3 The Darkness (Darker Mix By Komor Kommando) 4:20
4 I Want It (iVardensphere Mix) 4:44
5 Gonna Getcha (Drone Remix) 3:24
6 From Below 2:26
7 Creepy Crawler (Dirty Whore Mix By Virtual Terrorist) 4:21
8 Bleeder (Industrial Strength Mix By Seb 'o' Tron 2000 b) 5:45
9 The Darkness (Demo) 4:00
Код:
Exact Audio Copy V0.99 prebeta 5 from 4. May 2009
EAC extraction logfile from 7. January 2011, 12:35
Zombie Girl / The Halloween EP
Used drive  : PIONEER DVD-RW  DVR-218L   Adapter: 0  ID: 0
Read mode               : Secure
Utilize accurate stream : Yes
Defeat audio cache      : Yes
Make use of C2 pointers : No
Read offset correction                      : 6
Overread into Lead-In and Lead-Out          : No
Fill up missing offset samples with silence : Yes
Delete leading and trailing silent blocks   : No
Null samples used in CRC calculations       : Yes
Used interface                              : Installed external ASPI interface
Gap handling                                : Appended to previous track
Used output format              : User Defined Encoder
Selected bitrate                : 320 kBit/s
Quality                         : High
Add ID3 tag                     : No
Command line compressor         : C:\Program Files\Exact Audio Copy\Flac\flac.exe
Additional command line options : -8 -V -T "ARTIST=%a" -T "TITLE=%t" -T "ALBUM=%g" -T "DATE=%y" -T "TRACKNUMBER=%n" -T "GENRE=%m" -T "COMMENT=EAC FLAC -8" %s
TOC of the extracted CD
     Track |   Start  |  Length  | Start sector | End sector
    ---------------------------------------------------------
        1  |  0:00.00 |  5:16.00 |         0    |    23699
        2  |  5:16.00 |  3:18.37 |     23700    |    38586
        3  |  8:34.37 |  4:20.37 |     38587    |    58123
        4  | 12:54.74 |  4:44.00 |     58124    |    79423
        5  | 17:38.74 |  3:24.28 |     79424    |    94751
        6  | 21:03.27 |  2:35.56 |     94752    |   106432
        7  | 23:39.08 |  4:21.09 |    106433    |   126016
        8  | 28:00.17 |  5:45.23 |    126017    |   151914
        9  | 33:45.40 |  4:00.00 |    151915    |   169914
Track  1
     Filename C:\Music\ZZZ Soulseek\(2009) Zombie Girl - The Halloween EP (lossless)\01 Halloween '89.wav
     Pre-gap length  0:00:02.00
     Peak level 100.0 %
     Track quality 100.0 %
     Test CRC DBBD785B
     Copy CRC DBBD785B
     Accurately ripped (confidence 2)  [96B58C34]
     Copy OK
Track  2
     Filename C:\Music\ZZZ Soulseek\(2009) Zombie Girl - The Halloween EP (lossless)\02 The Ones Who Walk At Night.wav
     Pre-gap length  0:00:02.00
     Peak level 100.0 %
     Track quality 100.0 %
     Test CRC F80E0426
     Copy CRC F80E0426
     Accurately ripped (confidence 2)  [3EFFECC3]
     Copy OK
Track  3
     Filename C:\Music\ZZZ Soulseek\(2009) Zombie Girl - The Halloween EP (lossless)\03 The Darkness (Darker Mix By Komor Kommando).wav
     Pre-gap length  0:00:02.00
     Peak level 100.0 %
     Track quality 100.0 %
     Test CRC C100804B
     Copy CRC C100804B
     Accurately ripped (confidence 2)  [BF0D4C9E]
     Copy OK
Track  4
     Filename C:\Music\ZZZ Soulseek\(2009) Zombie Girl - The Halloween EP (lossless)\04 I Want It (iVardensphere Mix).wav
     Pre-gap length  0:00:02.00
     Peak level 100.0 %
     Track quality 100.0 %
     Test CRC 8ED7DC97
     Copy CRC 8ED7DC97
     Accurately ripped (confidence 2)  [8612C7E2]
     Copy OK
Track  5
     Filename C:\Music\ZZZ Soulseek\(2009) Zombie Girl - The Halloween EP (lossless)\05 Gonna Getcha (Drone Remix).wav
     Pre-gap length  0:00:02.00
     Peak level 100.0 %
     Track quality 100.0 %
     Test CRC C7993D21
     Copy CRC C7993D21
     Accurately ripped (confidence 2)  [7A53AD60]
     Copy OK
Track  6
     Filename C:\Music\ZZZ Soulseek\(2009) Zombie Girl - The Halloween EP (lossless)\06 From Below.wav
     Pre-gap length  0:00:02.00
     Peak level 100.0 %
     Track quality 99.9 %
     Test CRC 4D4240BD
     Copy CRC 4D4240BD
     Accurately ripped (confidence 2)  [F4FD9FA7]
     Copy OK
Track  7
     Filename C:\Music\ZZZ Soulseek\(2009) Zombie Girl - The Halloween EP (lossless)\07 Creepy Crawler (Dirty Whore Mix By Virtual Terrorist).wav
     Pre-gap length  0:00:02.00
     Peak level 100.0 %
     Track quality 100.0 %
     Test CRC 03E2F30E
     Copy CRC 03E2F30E
     Accurately ripped (confidence 2)  [CF0A163C]
     Copy OK
Track  8
     Filename C:\Music\ZZZ Soulseek\(2009) Zombie Girl - The Halloween EP (lossless)\08 Bleeder (Industrial Strength Mix By Seb'o'Tron 2000 b).wav
     Pre-gap length  0:00:02.00
     Peak level 100.0 %
     Track quality 100.0 %
     Test CRC 5BFCD686
     Copy CRC 5BFCD686
     Accurately ripped (confidence 2)  [E1E8A340]
     Copy OK
Track  9
     Filename C:\Music\ZZZ Soulseek\(2009) Zombie Girl - The Halloween EP (lossless)\09 The Darkness (Demo).wav
     Pre-gap length  0:00:02.00
     Peak level 100.0 %
     Track quality 100.0 %
     Test CRC 3C4484E9
     Copy CRC 3C4484E9
     Accurately ripped (confidence 2)  [447D6823]
     Copy OK
All tracks accurately ripped
No errors occurred
End of status report
Код:
REM GENRE EBM
REM DATE 2009
REM DISCID 6708D909
REM COMMENT "ExactAudioCopy v0.99pb5"
PERFORMER "Zombie Girl"
TITLE "The Halloween EP"
FILE "01 Halloween '89.wav" WAVE
  TRACK 01 AUDIO
    TITLE "Halloween '89"
    PERFORMER "Zombie Girl"
    FLAGS DCP
    INDEX 01 00:00:00
  TRACK 02 AUDIO
    TITLE "The Ones Who Walk At Night"
    PERFORMER "Zombie Girl"
    FLAGS DCP
    INDEX 00 05:14:00
FILE "02 The Ones Who Walk At Night.wav" WAVE
    INDEX 01 00:00:00
  TRACK 03 AUDIO
    TITLE "The Darkness (Darker Mix By Komor Kommando)"
    PERFORMER "Zombie Girl"
    FLAGS DCP
    INDEX 00 03:16:37
FILE "03 The Darkness (Darker Mix By Komor Kommando).wav" WAVE
    INDEX 01 00:00:00
  TRACK 04 AUDIO
    TITLE "I Want It (iVardensphere Mix)"
    PERFORMER "Zombie Girl"
    FLAGS DCP
    INDEX 00 04:18:37
FILE "04 I Want It (iVardensphere Mix).wav" WAVE
    INDEX 01 00:00:00
  TRACK 05 AUDIO
    TITLE "Gonna Getcha (Drone Remix)"
    PERFORMER "Zombie Girl"
    FLAGS DCP
    INDEX 00 04:42:00
FILE "05 Gonna Getcha (Drone Remix).wav" WAVE
    INDEX 01 00:00:00
  TRACK 06 AUDIO
    TITLE "From Below"
    PERFORMER "Zombie Girl"
    FLAGS DCP
    INDEX 00 03:22:28
FILE "06 From Below.wav" WAVE
    INDEX 01 00:00:00
  TRACK 07 AUDIO
    TITLE "Creepy Crawler (Dirty Whore Mix By Virtual Terrorist)"
    PERFORMER "Zombie Girl"
    FLAGS DCP
    INDEX 00 02:33:56
FILE "07 Creepy Crawler (Dirty Whore Mix By Virtual Terrorist).wav" WAVE
    INDEX 01 00:00:00
  TRACK 08 AUDIO
    TITLE "Bleeder (Industrial Strength Mix By Seb'o'Tron 2000 b)"
    PERFORMER "Zombie Girl"
    FLAGS DCP
    INDEX 00 04:19:09
FILE "08 Bleeder (Industrial Strength Mix By Seb'o'Tron 2000 b).wav" WAVE
    INDEX 01 00:00:00
  TRACK 09 AUDIO
    TITLE "The Darkness (Demo)"
    PERFORMER "Zombie Girl"
    FLAGS DCP
    INDEX 00 05:43:23
FILE "09 The Darkness (Demo).wav" WAVE
    INDEX 01 00:00:00
Правила, инструкции, FAQ!!!
Торрент  Добавлен [26 июн 2020, 20:19] Скачать торрент Магнет ссылка
Скачать торрент
[ Размер 19.66 КБ / Просмотров 12 ]

Статус
Проверен 
 
Размер  1.11 ГБ
Приватный: Нет (DHT включён)
.torrent скачан  0
 


     Отправить личное сообщение
   
Страница 1 из 1
Показать сообщения за:  Поле сортировки  
Начать новую тему Ответить на тему


Сейчас этот форум просматривают: нет зарегистрированных пользователей и гости: 0


Вы не можете начинать темы
Вы не можете отвечать на сообщения
Вы не можете редактировать свои сообщения
Вы не можете удалять свои сообщения
Вы не можете добавлять вложения

Перейти:  
cron