Начать новую тему Ответить на тему
Статистика раздачи
Размер: 609.31 МБ | Добавлен: 26 июн 2020, 20:02 | Скачали: 0
Сидеров: 0  [0 байт/сек]    Личеров: 0  [0 байт/сек]
Пред. тема | След. тема 

Автор
Сообщение

СообщениеДобавлено: 26 июн 2020, 20:02 

Ответить с цитатой 

Wynardtage / The Forgotten Sins 2002 - 2005
Жанр: EBM
Страна-производитель диска: Germany
Год издания диска: 2008
Издатель (лейбл): Rupal Records
Номер по каталогу: RR 015
Аудио кодек: FLAC (*.flac)
Тип рипа: image+.cue
Битрейт аудио: lossless
Продолжительность: 1:18:39.42
Источник (релизер): Получено по обмену (Oflasen1)
Наличие сканов в содержимом раздачи: да
Треклист:
01. Dunkler Schatten [4:44]
02. The Forgotten Sins [4:30]
03. Figures In The Mirror [4:51]
04. My Hell [5:50]
05. Dein Fleisch [4:17]
06. Flieh Mit Mir [3:40]
07. No Confidence [3:56]
08. Resurrection [4:10]
09. There Was A Time [6:29]
10. Waste Of Time [5:26]
11. The Hell Is Here [3:55]
12. Die With Me [5:19]
13. Protection [4:34]
14. Cold [3:43]
15. I'm Not Your God 2008 [4:35]
16. Sterbehilfe 2008 [4:21]
17. Rascheln [4:20]
Код:
Exact Audio Copy V0.99 prebeta 4 from 23. January 2008
EAC extraction logfile from 15. November 2010, 18:42
Wynardtage / The Forgotten sins 2002-2005
Used drive  : PLEXTOR DVDR   PX-760A   Adapter: 1  ID: 0
Read mode               : Secure
Utilize accurate stream : Yes
Defeat audio cache      : Yes
Make use of C2 pointers : No
Read offset correction                      : 30
Overread into Lead-In and Lead-Out          : No
Fill up missing offset samples with silence : Yes
Delete leading and trailing silent blocks   : No
Null samples used in CRC calculations       : Yes
Used interface                              : Installed external ASPI interface
Used output format              : User Defined Encoder
Selected bitrate                : 192 kBit/s
Quality                         : High
Add ID3 tag                     : No
Command line compressor         : C:\Program Files\Exact Audio Copy\FLAC\FLAC.EXE
Additional command line options : -8 -A tukey(0.25) -A gauss(0.1875) -b 4096 -V -T "artist=%a" -T "title=%t" -T "album=%g" -T "date=%y" -T "tracknumber=%n" -T "genre=%m" %s --sector-align
TOC of the extracted CD
     Track |   Start  |  Length  | Start sector | End sector
    ---------------------------------------------------------
        1  |  0:00.00 |  4:43.49 |         0    |    21273
        2  |  4:43.49 |  4:29.39 |     21274    |    41487
        3  |  9:13.13 |  4:51.30 |     41488    |    63342
        4  | 14:04.43 |  5:49.68 |     63343    |    89585
        5  | 19:54.36 |  4:16.59 |     89586    |   108844
        6  | 24:11.20 |  3:40.01 |    108845    |   125345
        7  | 27:51.21 |  3:56.33 |    125346    |   143078
        8  | 31:47.54 |  4:09.46 |    143079    |   161799
        9  | 35:57.25 |  6:28.43 |    161800    |   190942
       10  | 42:25.68 |  5:26.37 |    190943    |   215429
       11  | 47:52.30 |  3:55.16 |    215430    |   233070
       12  | 51:47.46 |  5:18.65 |    233071    |   256985
       13  | 57:06.36 |  4:34.05 |    256986    |   277540
       14  | 61:40.41 |  3:42.71 |    277541    |   294261
       15  | 65:23.37 |  4:35.17 |    294262    |   314903
       16  | 69:58.54 |  4:20.41 |    314904    |   334444
       17  | 74:19.20 |  4:20.22 |    334445    |   353966
Range status and errors
Selected range
     Filename I:\Torrents\Films\MUSIC FLAC\IMAGES\Wynardtage - The Forgotten Sins 2002 - 2005\Wynardtage - The Forgotten sins 2002-2005.wav
     Peak level 100.0 %
     Range quality 100.0 %
     Test CRC 284BA519
     Copy CRC 284BA519
     Copy OK
No errors occurred
AccurateRip summary
Track  1  accurately ripped (confidence 1)  [52C40BB3]
Track  2  accurately ripped (confidence 1)  [9A3B5D2F]
Track  3  accurately ripped (confidence 1)  [23AC4C82]
Track  4  accurately ripped (confidence 1)  [E04AFFC8]
Track  5  accurately ripped (confidence 1)  [521EB9A5]
Track  6  accurately ripped (confidence 1)  [C8171A42]
Track  7  accurately ripped (confidence 1)  [8FF58915]
Track  8  accurately ripped (confidence 1)  [934A42A7]
Track  9  accurately ripped (confidence 1)  [31DA6D31]
Track 10  accurately ripped (confidence 1)  [628C690C]
Track 11  accurately ripped (confidence 1)  [4D5CEC27]
Track 12  accurately ripped (confidence 1)  [44B555E9]
Track 13  accurately ripped (confidence 1)  [3AEC4583]
Track 14  accurately ripped (confidence 1)  [7ADEB0E7]
Track 15  accurately ripped (confidence 1)  [48E97EA4]
Track 16  accurately ripped (confidence 1)  [26786C91]
Track 17  accurately ripped (confidence 1)  [5E34B34A]
All tracks accurately ripped
End of status report
Правила, инструкции, FAQ!!!
Торрент  Добавлен [26 июн 2020, 20:02] Скачать торрент Магнет ссылка
Скачать торрент
[ Размер 12.84 КБ / Просмотров 7 ]

Статус
Проверен 
 
Размер  609.31 МБ
Приватный: Нет (DHT включён)
.torrent скачан  0
 


     Отправить личное сообщение
   
Страница 1 из 1
Показать сообщения за:  Поле сортировки  
Начать новую тему Ответить на тему


Сейчас этот форум просматривают: нет зарегистрированных пользователей и гости: 0


Вы не можете начинать темы
Вы не можете отвечать на сообщения
Вы не можете редактировать свои сообщения
Вы не можете удалять свои сообщения
Вы не можете добавлять вложения

Перейти:  
cron