Начать новую тему Ответить на тему
Статистика раздачи
Размер: 50.97 МБ | Добавлен: 26 июн 2020, 16:53 | Скачали: 0
Сидеров: 0  [0 байт/сек]    Личеров: 0  [0 байт/сек]
Пред. тема | След. тема 

Автор
Сообщение

СообщениеДобавлено: 26 июн 2020, 16:53 

Ответить с цитатой 

Wulfband - Wulfband (Promo CD)
Жанр: EBM
Носитель: CD
Год издания: 2014
Издатель (лейбл): Progress Productions
Страна: Sweden
Аудиокодек: FLAC (*.flac)
Тип рипа: image+.cue
Битрейт аудио: lossless
Продолжительность: 00:07:45
Источник (релизер): Собственный диск
Наличие сканов в содержимом раздачи: нет

Треклист:
1 Jetzt
2 Attentat
3 Panik
Код:
Exact Audio Copy V1.0 beta 3 from 29. August 2011
Отчёт EAC об извлечении, выполненном 8. ноября 2014, 10:53
Wulfband / Promo EP
Дисковод: TSSTcorpCDDVDW SH-S223B   Adapter: 0  ID: 0
Режим чтения                 : Достоверность
Использование точного потока : Да
Отключение кэша аудио        : Да
Использование указателей C2  : Нет
Коррекция смещения при чтении                     : 6
Способность читать области Lead-in и Lead-out     : Нет
Заполнение пропущенных сэмплов тишиной            : Да
Удаление блоков с тишиной в начале и конце        : Нет
При вычислениях CRC использовались нулевые сэмплы : Да
Интерфейс                                         : Встроенный Win32-интерфейс для Win NT/2000
Выходной формат          : Пользовательский кодировщик
Выбранный битрейт        : 128 kBit/s
Качество                 : Высокий
Добавление ID3-тега      : Нет
Утилита сжатия           : C:\Program Files (x86)\Exact Audio Copy\Flac\flac.exe
Дополнительные параметры : -V -8 -T "Date=%year%" -T "Genre=%genre%" %source%
TOC извлечённого CD
     Трек |   Старт  | Длительность | Начальный сектор | Конечный сектор
    ---------------------------------------------------------------------
       1  |  0:00.00 |    3:02.64   |           0      |      13713
       2  |  3:02.64 |    2:30.60   |       13714      |      25023
       3  |  5:33.49 |    2:12.03   |       25024      |      34926
Характеристики диапазона извлечения и сообщения об ошибках
Выбранный диапазон
     Имя файла M:\Wulfband - Promo EP.wav
     Пиковый уровень 98.9 %
     Скорость извлечения 1.9 X
     Качество диапазона 100.0 %
     CRC теста 494FF5CB
     CRC копии 494FF5CB
     Копирование... OK
Ошибок не произошло
AccurateRip: сводка
Трек  1  : извлечено точно (доверие 1)  [A328DE5F]  (AR v2)
Трек  2  : извлечено точно (доверие 1)  [44E86DE5]  (AR v2)
Трек  3  : извлечено точно (доверие 1)  [D61C8980]  (AR v2)
Все треки извлечены точно
Конец отчёта
==== Контрольная сумма отчёта 855874A7EBDF405F45F5C69A6FE4141B5F6C6102B1C655841FC94A13D6B8F96A ====
Код:
REM GENRE Industrial
REM DATE 2014
REM DISCID 1A01D103
REM COMMENT "ExactAudioCopy v1.0b3"
PERFORMER "Wulfband"
TITLE "Promo EP"
FILE "Wulfband - Promo EP.flac" WAVE
  TRACK 01 AUDIO
    TITLE "Jetzt"
    PERFORMER "Wulfband"
    INDEX 01 00:00:00
  TRACK 02 AUDIO
    TITLE "Attentat"
    PERFORMER "Wulfband"
    INDEX 01 03:02:64
  TRACK 03 AUDIO
    TITLE "Panik"
    PERFORMER "Wulfband"
    INDEX 01 05:33:49
Правила, инструкции, FAQ!!!
Торрент  Добавлен [26 июн 2020, 16:53] Скачать торрент Магнет ссылка
Скачать торрент
[ Размер 16.53 КБ / Просмотров 5 ]

Статус
Проверен 
 
Размер  50.97 МБ
Приватный: Нет (DHT включён)
.torrent скачан  0
 


     Отправить личное сообщение
   
Страница 1 из 1
Показать сообщения за:  Поле сортировки  
Начать новую тему Ответить на тему


Сейчас этот форум просматривают: нет зарегистрированных пользователей и гости: 0


Вы не можете начинать темы
Вы не можете отвечать на сообщения
Вы не можете редактировать свои сообщения
Вы не можете удалять свои сообщения
Вы не можете добавлять вложения

Перейти:  
cron