Начать новую тему Ответить на тему
Статистика раздачи
Размер: 515.25 МБ | Добавлен: 26 июн 2020, 16:59 | Скачали: 0
Сидеров: 0  [0 байт/сек]    Личеров: 0  [0 байт/сек]
Пред. тема | След. тема 

Автор
Сообщение

СообщениеДобавлено: 26 июн 2020, 16:59 

Ответить с цитатой 

Void Construct / Sensory Division
Жанр: EBM
Страна-производитель диска: UK
Год издания диска: 2002
Издатель (лейбл): Cryonica Music
Номер по каталогу: CRYCD009
Аудио кодек: FLAC (*.flac)
Тип рипа: image+.cue
Битрейт аудио: lossless
Продолжительность: 1:08:14.30
Источник (релизер): Физический носитель
Наличие сканов в содержимом раздачи: да
Треклист:
01. Quarantine [2:11]
02. Rebirth [5:32]
03. Disconnected [5:35]
04. Carcinogen [5:58]
05. Visionary [6:25]
06. Traumatech [7:04]
07. Functional Isolation [4:18]
08. Divide By Zero [5:45]
09. Surface Tension [5:55]
10. Random Access [7:29]
11. Psynapse [6:48]
12. Pure Vision [5:17]
Код:
Exact Audio Copy V0.99 prebeta 5 from 4. May 2009
Отчёт EAC об извлечении, выполненном 13. февраля 2011, 19:55
Void Construct / Sensory Division
Дисковод: Optiarc DVD RW AD-7173A   Adapter: 0  ID: 0
Режим чтения                 : Достоверность
Использование точного потока : Да
Отключение кэша аудио        : Да
Использование указателей C2  : Нет
Коррекция смещения при чтении                     : 48
Способность читать области Lead-in и Lead-out     : Нет
Заполнение пропущенных сэмплов тишиной            : Да
Удаление блоков с тишиной в начале и конце        : Нет
При вычислениях CRC использовались нулевые сэмплы : Да
Интерфейс                                         : Установленный внешний ASPI-интерфейс
Выходной формат          : Пользовательский кодировщик
Выбранный битрейт        : 1024 kBit/s
Качество                 : Высокий
Добавление ID3-тэга      : Нет
Утилита сжатия           : C:\Program Files\Exact Audio Copy\flac.exe
Дополнительные параметры : -6 -V -T "ARTIST=%a" -T "TITLE=%t" -T "ALBUM=%g" -T "DATE=%y" -T "TRACKNUMBER=%n" -T "GENRE=%m" -T "COMMENT=%e" %s -o %d
TOC извлечённого CD
     Трек |   Старт  | Длительность | Начальный сектор | Конечный сектор
    ---------------------------------------------------------------------
       1  |  0:00.00 |    2:11.07   |           0      |       9831
       2  |  2:11.07 |    5:31.50   |        9832      |      34706
       3  |  7:42.57 |    5:34.60   |       34707      |      59816
       4  | 13:17.42 |    5:57.50   |       59817      |      86641
       5  | 19:15.17 |    6:24.38   |       86642      |     115479
       6  | 25:39.55 |    7:03.55   |      115480      |     147259
       7  | 32:43.35 |    4:17.38   |      147260      |     166572
       8  | 37:00.73 |    5:45.37   |      166573      |     192484
       9  | 42:46.35 |    5:54.59   |      192485      |     219093
      10  | 48:41.19 |    7:28.52   |      219094      |     252745
      11  | 56:09.71 |    6:47.47   |      252746      |     283317
      12  | 62:57.43 |    5:16.62   |      283318      |     307079
Характеристики диапазона извлечения и сообщения об ошибках
Выбранный диапазон
     Имя файла H:\СКАЧКА\FLAC\1 TORRENT\Void Construct - Sensory Division.wav
     Пиковый уровень 96.6 %
     Качество диапазона 99.9 %
     CRC теста D463F103
     CRC копии D463F103
     Копирование... OK
Ошибок не произошло
AccurateRip: сводка
Трек  1  точное извлечение (доверие 3)  [1DE595B2]
Трек  2  точное извлечение (доверие 3)  [23021C6C]
Трек  3  точное извлечение (доверие 3)  [C6A8B55E]
Трек  4  точное извлечение (доверие 3)  [57129605]
Трек  5  точное извлечение (доверие 3)  [5E31793D]
Трек  6  точное извлечение (доверие 3)  [9AB088F4]
Трек  7  точное извлечение (доверие 3)  [4F7706B4]
Трек  8  точное извлечение (доверие 3)  [1D249143]
Трек  9  точное извлечение (доверие 3)  [EC8D4B2B]
Трек 10  точное извлечение (доверие 3)  [E37A3506]
Трек 11  точное извлечение (доверие 3)  [00EDA4B8]
Трек 12  точное извлечение (доверие 2)  [E2A6FB01]
Все треки извлечены точно
Конец отчёта
Правила, инструкции, FAQ!!!
Торрент  Добавлен [26 июн 2020, 16:59] Скачать торрент Магнет ссылка
Скачать торрент
[ Размер 11.09 КБ / Просмотров 5 ]

Статус
Проверен 
 
Размер  515.25 МБ
Приватный: Нет (DHT включён)
.torrent скачан  0
 


     Отправить личное сообщение
   
Страница 1 из 1
Показать сообщения за:  Поле сортировки  
Начать новую тему Ответить на тему


Сейчас этот форум просматривают: нет зарегистрированных пользователей и гости: 0


Вы не можете начинать темы
Вы не можете отвечать на сообщения
Вы не можете редактировать свои сообщения
Вы не можете удалять свои сообщения
Вы не можете добавлять вложения

Перейти:  
cron