Начать новую тему Ответить на тему
Статистика раздачи
Размер: 465.59 МБ | Добавлен: 26 июн 2020, 16:59 | Скачали: 0
Сидеров: 0  [0 байт/сек]    Личеров: 0  [0 байт/сек]
Пред. тема | След. тема 

Автор
Сообщение

СообщениеДобавлено: 26 июн 2020, 16:59 

Ответить с цитатой 

Void Construct / Estramay Aleph
Жанр: EBM
Страна-производитель диска: UK
Год издания диска: 2001
Издатель (лейбл): Cryonica Music
Номер по каталогу: CRYCD003
Аудио кодек: FLAC (*.flac)
Тип рипа: image+.cue
Битрейт аудио: lossless
Продолжительность: 1:04:47.63
Источник (релизер): Физический носитель
Наличие сканов в содержимом раздачи: да
Треклист:
01. Chemical Burn [6:14]
02. Anodyne Impulse [6:00]
03. Splintered [6:41]
04. Silicon Etch 6-1-1 [6:56]
05. Estramay Aleph [6:52]
06. Construct [5:56]
07. Tunguska [0:55]
08. Asphyxia [5:55]
09. Dust Angel [6:30]
10. Critical Mass [6:16]
11. Synthemesc [6:33]
Код:
Exact Audio Copy V0.99 prebeta 5 from 4. May 2009
Отчёт EAC об извлечении, выполненном 17. января 2011, 17:47
Void Construct / Estramay Aleph
Дисковод: Optiarc DVD RW AD-7173A   Adapter: 0  ID: 0
Режим чтения                 : Достоверность
Использование точного потока : Да
Отключение кэша аудио        : Да
Использование указателей C2  : Нет
Коррекция смещения при чтении                     : 48
Способность читать области Lead-in и Lead-out     : Нет
Заполнение пропущенных сэмплов тишиной            : Да
Удаление блоков с тишиной в начале и конце        : Нет
При вычислениях CRC использовались нулевые сэмплы : Да
Интерфейс                                         : Установленный внешний ASPI-интерфейс
Выходной формат          : Пользовательский кодировщик
Выбранный битрейт        : 1024 kBit/s
Качество                 : Высокий
Добавление ID3-тэга      : Нет
Утилита сжатия           : C:\Program Files\Exact Audio Copy\flac.exe
Дополнительные параметры : -6 -V -T "ARTIST=%a" -T "TITLE=%t" -T "ALBUM=%g" -T "DATE=%y" -T "TRACKNUMBER=%n" -T "GENRE=%m" -T "COMMENT=%e" %s -o %d
TOC извлечённого CD
     Трек |   Старт  | Длительность | Начальный сектор | Конечный сектор
    ---------------------------------------------------------------------
       1  |  0:00.00 |    6:14.11   |           0      |      28060
       2  |  6:14.11 |    5:59.50   |       28061      |      55035
       3  | 12:13.61 |    6:40.47   |       55036      |      85082
       4  | 18:54.33 |    6:55.73   |       85083      |     116280
       5  | 25:50.31 |    6:51.38   |      116281      |     147143
       6  | 32:41.69 |    5:56.27   |      147144      |     173870
       7  | 38:38.21 |    0:54.69   |      173871      |     177989
       8  | 39:33.15 |    5:55.26   |      177990      |     204640
       9  | 45:28.41 |    6:30.24   |      204641      |     233914
      10  | 51:58.65 |    6:15.74   |      233915      |     262113
      11  | 58:14.64 |    6:32.74   |      262114      |     291587
Характеристики диапазона извлечения и сообщения об ошибках
Выбранный диапазон
     Имя файла H:\СКАЧКА\FLAC\1 TORRENT\Void Construct - Estramay Aleph.wav
     Пиковый уровень 96.5 %
     Качество диапазона 99.9 %
     CRC теста 62435DDC
     CRC копии 62435DDC
     Копирование... OK
Ошибок не произошло
AccurateRip: сводка
Трек  1  точное извлечение (доверие 1)  [DC04370E]
Трек  2  точное извлечение (доверие 1)  [625678B5]
Трек  3  точное извлечение (доверие 1)  [94B307E9]
Трек  4  точное извлечение (доверие 1)  [817C93DE]
Трек  5  точное извлечение (доверие 1)  [571A2040]
Трек  6  точное извлечение (доверие 1)  [F2B8570B]
Трек  7  точное извлечение (доверие 1)  [5DEF93C2]
Трек  8  точное извлечение (доверие 1)  [9CED99CB]
Трек  9  точное извлечение (доверие 1)  [1822FE6D]
Трек 10  точное извлечение (доверие 1)  [829F20C4]
Трек 11  точное извлечение (доверие 1)  [C5EE2A65]
Все треки извлечены точно
Конец отчёта
Правила, инструкции, FAQ!!!
Торрент  Добавлен [26 июн 2020, 16:59] Скачать торрент Магнет ссылка
Скачать торрент
[ Размер 19.11 КБ / Просмотров 5 ]

Статус
Проверен 
 
Размер  465.59 МБ
Приватный: Нет (DHT включён)
.torrent скачан  0
 


     Отправить личное сообщение
   
Страница 1 из 1
Показать сообщения за:  Поле сортировки  
Начать новую тему Ответить на тему


Сейчас этот форум просматривают: нет зарегистрированных пользователей и гости: 0


Вы не можете начинать темы
Вы не можете отвечать на сообщения
Вы не можете редактировать свои сообщения
Вы не можете удалять свои сообщения
Вы не можете добавлять вложения

Перейти:  
cron