Начать новую тему Ответить на тему
Статистика раздачи
Размер: 239.94 МБ | Добавлен: 26 июн 2020, 19:44 | Скачали: 0
Сидеров: 0  [0 байт/сек]    Личеров: 0  [0 байт/сек]
Пред. тема | След. тема 

Автор
Сообщение

СообщениеДобавлено: 26 июн 2020, 19:44 

Ответить с цитатой 

Tyske Ludder / Bambule
Жанр: EBM
Носитель: CDM
Страна-производитель диска (релиза): Germany
Год издания: 2003
Издатель (лейбл): Black Rain
Номер по каталогу: BR099
Страна исполнителя (группы): Germany
Аудиокодек: FLAC (*.flac)
Тип рипа: image+.cue
Продолжительность: 00:33:53:30
Источник: собственный рип
Наличие сканов в содержимом раздачи: нет
Треклист:
1 Bambule (Mexican Edit) 5:41
2 U-Boot (Dive Into Fear Edit) 5:08
3 Bambule (EvvilKing-Mix By Steril) 5:47
4 Bambule (Harmbule Rmx By Harm Joy) 6:29
5 Bambule (Tikka Masala Remix By Implant) 5:31
6 Bambule (By Feindflug) 5:19
Код:
Exact Audio Copy V1.0 beta 3 from 29. August 2011
Отчёт EAC об извлечении, выполненном 11. ноября 2019, 16:45
Tyske Ludder / Bambule
Дисковод: TSSTcorpCDDVDW SH-224DB   Adapter: 1  ID: 0
Режим чтения                 : Достоверность
Использование точного потока : Да
Отключение кэша аудио        : Да
Использование указателей C2  : Нет
Коррекция смещения при чтении                     : 6
Способность читать области Lead-in и Lead-out     : Нет
Заполнение пропущенных сэмплов тишиной            : Да
Удаление блоков с тишиной в начале и конце        : Нет
При вычислениях CRC использовались нулевые сэмплы : Да
Интерфейс                                         : Встроенный Win32-интерфейс для Win NT/2000
Выходной формат          : Пользовательский кодировщик
Выбранный битрейт        : 128 kBit/s
Качество                 : Высокий
Добавление ID3-тега      : Нет
Утилита сжатия           : C:\Program Files (x86)\FLAC\flac.exe
Дополнительные параметры : -V -8 -T "Date=%year%" -T "Genre=%genre%" %source%
TOC извлечённого CD
     Трек |   Старт  | Длительность | Начальный сектор | Конечный сектор
    ---------------------------------------------------------------------
       1  |  0:00.00 |    5:41.09   |           0      |      25583
       2  |  5:41.09 |    5:08.17   |       25584      |      48700
       3  | 10:49.26 |    5:46.51   |       48701      |      74701
       4  | 16:36.02 |    6:28.36   |       74702      |     103837
       5  | 23:04.38 |    5:30.32   |      103838      |     128619
       6  | 28:34.70 |    5:18.35   |      128620      |     152504
Характеристики диапазона извлечения и сообщения об ошибках
Выбранный диапазон
     Имя файла C:\EAC\Tyske Ludder ‎– Bambule - 2003 CD EP\Tyske Ludder - Bambule.wav
     Пиковый уровень 98.8 %
     Скорость извлечения 2.6 X
     Качество диапазона 100.0 %
     CRC теста E4D21E19
     CRC копии E4D21E19
     Копирование... OK
Ошибок не произошло
AccurateRip: сводка
Трек  1  отсутствует в базе данных
Трек  2  отсутствует в базе данных
Трек  3  отсутствует в базе данных
Трек  4  отсутствует в базе данных
Трек  5  отсутствует в базе данных
Трек  6  отсутствует в базе данных
Ни одного трека нет в базе AccurateRip
Конец отчёта
==== Контрольная сумма отчёта E3F680CD87D91BB7115FBC25077DFEBC965E62B51E8A01C77A70C350FBE69A99 ====
Код:
REM DATE 2003
REM DISCID 5307F106
REM COMMENT "ExactAudioCopy v1.0b3"
PERFORMER "Tyske Ludder"
TITLE "Bambule"
FILE "Tyske Ludder - Bambule.flac" WAVE
  TRACK 01 AUDIO
    TITLE "Bambule (Mexican Edit)"
    PERFORMER "Tyske Ludder"
    INDEX 01 00:00:00
  TRACK 02 AUDIO
    TITLE "U-Boot (Dive Into Fear Edit)"
    PERFORMER "Tyske Ludder"
    INDEX 00 05:39:24
    INDEX 01 05:41:09
  TRACK 03 AUDIO
    TITLE "Bambule (EvvilKing-Mix By Steril)"
    PERFORMER "Tyske Ludder"
    INDEX 01 10:49:26
  TRACK 04 AUDIO
    TITLE "Bambule (Harmbule Rmx By Harm Joy)"
    PERFORMER "Tyske Ludder"
    INDEX 00 16:34:02
    INDEX 01 16:36:02
  TRACK 05 AUDIO
    TITLE "Bambule (Tikka Masala Remix By Implant)"
    PERFORMER "Tyske Ludder"
    INDEX 00 23:02:67
    INDEX 01 23:04:38
  TRACK 06 AUDIO
    TITLE "Bambule (By Feindflug)"
    PERFORMER "Tyske Ludder"
    INDEX 00 28:32:43
    INDEX 01 28:34:70
Правила, инструкции, FAQ!!!
Торрент  Добавлен [26 июн 2020, 19:44] Скачать торрент Магнет ссылка
Скачать торрент
[ Размер 19.39 КБ / Просмотров 9 ]

Статус
Проверен 
 
Размер  239.94 МБ
Приватный: Нет (DHT включён)
.torrent скачан  0
 


     Отправить личное сообщение
   
Страница 1 из 1
Показать сообщения за:  Поле сортировки  
Начать новую тему Ответить на тему


Сейчас этот форум просматривают: нет зарегистрированных пользователей и гости: 0


Вы не можете начинать темы
Вы не можете отвечать на сообщения
Вы не можете редактировать свои сообщения
Вы не можете удалять свои сообщения
Вы не можете добавлять вложения

Перейти:  
cron