Начать новую тему Ответить на тему
Статистика раздачи
Размер: 221.46 МБ | Добавлен: 26 июн 2020, 19:47 | Скачали: 0
Сидеров: 0  [0 байт/сек]    Личеров: 0  [0 байт/сек]
Пред. тема | След. тема 

Автор
Сообщение

СообщениеДобавлено: 26 июн 2020, 19:47 

Ответить с цитатой 

Tribantura - Lack Of Sense
Жанр: EBM
Год выпуска диска: 2009
Производитель диска: Germany \ Infacted Recordings
Аудио кодек: FLAC
Тип рипа: tracks+.cue
Битрейт аудио: lossless
Продолжительность: 33:57

1 Lack Of Sense (6:05)
2 Legacy (6:56)
3 Bequest (3:43)
4 Getting Hurt Or Killed (5:06)
5 Lack Of Sense (Razormaid Mix) (6:57)
6 Relief (4:57)

from andy685
Код:
Exact Audio Copy V0.99 prebeta 5 from 4. May 2009
EAC extraction logfile from 31. May 2010, 18:54
Tribantura / Lack Of Sense
Used drive  : PLEXTOR CD-R   PREMIUM   Adapter: 0  ID: 0
Read mode               : Secure
Utilize accurate stream : Yes
Defeat audio cache      : Yes
Make use of C2 pointers : No
Read offset correction                      : 30
Overread into Lead-In and Lead-Out          : No
Fill up missing offset samples with silence : Yes
Delete leading and trailing silent blocks   : No
Null samples used in CRC calculations       : Yes
Used interface                              : Native Win32 interface for Win NT & 2000
Gap handling                                : Appended to previous track
Used output format : Internal WAV Routines
Sample format      : 44.100 Hz; 16 Bit; Stereo
TOC of the extracted CD
     Track |   Start  |  Length  | Start sector | End sector
    ---------------------------------------------------------
        1  |  0:00.00 |  6:07.67 |         0    |    27591
        2  |  6:07.67 |  7:00.04 |     27592    |    59095
        3  | 13:07.71 |  3:45.08 |     59096    |    75978
        4  | 16:53.04 |  5:04.38 |     75979    |    98816
        5  | 21:57.42 |  6:59.60 |     98817    |   130301
        6  | 28:57.27 |  5:00.48 |    130302    |   152849
Track  1
     Filename C:\Tribantura - Lack of Sence (2009)\01 Lack Of Sense.wav
     Pre-gap length  0:00:02.00
     Peak level 92.9 %
     Track quality 100.0 %
     Test CRC B61E3235
     Copy CRC B61E3235
     Accurately ripped (confidence 4)  [442F20CE]
     Copy OK
Track  2
     Filename C:\Tribantura - Lack of Sence (2009)\02 Legacy.wav
     Pre-gap length  0:00:02.00
     Peak level 96.2 %
     Track quality 99.9 %
     Test CRC 0A857969
     Copy CRC 0A857969
     Accurately ripped (confidence 4)  [A7D2A3AC]
     Copy OK
Track  3
     Filename C:\Tribantura - Lack of Sence (2009)\03 Bequest.wav
     Pre-gap length  0:00:02.00
     Peak level 96.6 %
     Track quality 99.9 %
     Test CRC 863B63F4
     Copy CRC 863B63F4
     Accurately ripped (confidence 4)  [3762294B]
     Copy OK
Track  4
     Filename C:\Tribantura - Lack of Sence (2009)\04 Getting Hurt Or Killed.wav
     Pre-gap length  0:00:02.00
     Peak level 95.4 %
     Track quality 99.9 %
     Test CRC C2FFF7B2
     Copy CRC C2FFF7B2
     Accurately ripped (confidence 4)  [5F68AC38]
     Copy OK
Track  5
     Filename C:\Tribantura - Lack of Sence (2009)\05 Lack Of Sense (Razormaid Mix).wav
     Pre-gap length  0:00:02.00
     Peak level 95.4 %
     Track quality 100.0 %
     Test CRC FC8E52EE
     Copy CRC FC8E52EE
     Accurately ripped (confidence 4)  [580C8D8B]
     Copy OK
Track  6
     Filename C:\Tribantura - Lack of Sence (2009)\06 Relief.wav
     Pre-gap length  0:00:02.00
     Peak level 96.6 %
     Track quality 100.0 %
     Test CRC 6FC5440A
     Copy CRC 6FC5440A
     Accurately ripped (confidence 4)  [E065375C]
     Copy OK
All tracks accurately ripped
No errors occurred
End of status report
Код:
REM GENRE Techno-Industrial
REM DATE 2009
REM DISCID 5507F606
REM COMMENT "ExactAudioCopy v0.99pb5"
PERFORMER "Tribantura"
TITLE "Lack Of Sense"
FILE "01 Lack Of Sense.wav" WAVE
  TRACK 01 AUDIO
    TITLE "Lack Of Sense "
    PERFORMER "Tribantura"
    FLAGS DCP
    INDEX 01 00:00:00
  TRACK 02 AUDIO
    TITLE "Legacy"
    PERFORMER "Tribantura"
    FLAGS DCP
    INDEX 00 06:05:67
FILE "02 Legacy.wav" WAVE
    INDEX 01 00:00:00
  TRACK 03 AUDIO
    TITLE "Bequest "
    PERFORMER "Tribantura"
    FLAGS DCP
    INDEX 00 06:58:04
FILE "03 Bequest.wav" WAVE
    INDEX 01 00:00:00
  TRACK 04 AUDIO
    TITLE "Getting Hurt Or Killed "
    PERFORMER "Tribantura"
    FLAGS DCP
    INDEX 00 03:43:08
FILE "04 Getting Hurt Or Killed.wav" WAVE
    INDEX 01 00:00:00
  TRACK 05 AUDIO
    TITLE "Lack Of Sense (Razormaid Mix)"
    PERFORMER "Tribantura"
    FLAGS DCP
    INDEX 00 05:02:38
FILE "05 Lack Of Sense (Razormaid Mix).wav" WAVE
    INDEX 01 00:00:00
  TRACK 06 AUDIO
    TITLE "Relief "
    PERFORMER "Tribantura"
    FLAGS DCP
    INDEX 00 06:57:60
FILE "06 Relief.wav" WAVE
    INDEX 01 00:00:00
Правила, инструкции, FAQ!!!
Торрент  Добавлен [26 июн 2020, 19:47] Скачать торрент Магнет ссылка
Скачать торрент
[ Размер 18.22 КБ / Просмотров 8 ]

Статус
Проверен 
 
Размер  221.46 МБ
Приватный: Нет (DHT включён)
.torrent скачан  0
 


     Отправить личное сообщение
   
Страница 1 из 1
Показать сообщения за:  Поле сортировки  
Начать новую тему Ответить на тему


Сейчас этот форум просматривают: нет зарегистрированных пользователей и гости: 0


Вы не можете начинать темы
Вы не можете отвечать на сообщения
Вы не можете редактировать свои сообщения
Вы не можете удалять свои сообщения
Вы не можете добавлять вложения

Перейти:  
cron