Начать новую тему Ответить на тему
Статистика раздачи
Размер: 331.53 МБ | Добавлен: 26 июн 2020, 17:04 | Скачали: 0
Сидеров: 0  [0 байт/сек]    Личеров: 0  [0 байт/сек]
Пред. тема | След. тема 

Автор
Сообщение

СообщениеДобавлено: 26 июн 2020, 17:04 

Ответить с цитатой 

Negative Format / Static EP
Жанр: EBM, Trance
Страна-производитель диска: Germany
Год издания диска: 2002
Издатель (лейбл): Out Of Line
Номер по каталогу: OUT 093
Страна: USA
Аудио кодек: FLAC (*.flac)
Тип рипа: image+.cue
Битрейт аудио: lossless
Продолжительность: 0:50:07.31
Источник (релизер): CD из личной коллекции.
Наличие сканов в содержимом раздачи: да
Треклист:
01. [Begin Transmission] 0:40
02. Static 6:12
03. Downfall 6:44
04. Static (Genocide Mix By Informatik) 4:39
05. Gateway 6:10
06. Static (Remix By Headscan) 5:51
07. Sense 7:15
08. N.E.A.R. (Aiboforcen Mix) 5:33
09. Static (Implant Rmx) 5:07
10. [End Transmission] 1:52
Код:
Exact Audio Copy V0.99 prebeta 5 from 4. May 2009
Отчёт EAC об извлечении, выполненном 8. января 2011, 16:24
Negative Format / Static EP
Дисковод: TSSTcorpCDDVDW TS-L632H   Adapter: 0  ID: 0
Режим чтения                 : Достоверность
Использование точного потока : Да
Отключение кэша аудио        : Да
Использование указателей C2  : Нет
Коррекция смещения при чтении                     : 6
Способность читать области Lead-in и Lead-out     : Нет
Заполнение пропущенных сэмплов тишиной            : Да
Удаление блоков с тишиной в начале и конце        : Нет
При вычислениях CRC использовались нулевые сэмплы : Да
Интерфейс                                         : Встроенный Win32-интерфейс для Win NT/2000
Выходной формат          : Пользовательский кодировщик
Выбранный битрейт        : 1024 kBit/s
Качество                 : Высокий
Добавление ID3-тэга      : Нет
Утилита сжатия           : C:\Program Files\Exact Audio Copy\FLAC\FLAC.EXE
Дополнительные параметры : -6 -V -T "ARTIST=%a" -T "TITLE=%t" -T "ALBUM=%g" -T "DATE=%y" -T "TRACKNUMBER=%n" -T "GENRE=%m" -T "COMMENT=%e" %s -o %d
TOC извлечённого CD
     Трек |   Старт  | Длительность | Начальный сектор | Конечный сектор
    ---------------------------------------------------------------------
       1  |  0:00.00 |    0:40.17   |           0      |       3016
       2  |  0:40.17 |    6:12.19   |        3017      |      30935
       3  |  6:52.36 |    6:44.13   |       30936      |      61248
       4  | 13:36.49 |    4:39.22   |       61249      |      82195
       5  | 18:15.71 |    6:10.69   |       82196      |     110014
       6  | 24:26.65 |    5:51.45   |      110015      |     136384
       7  | 30:18.35 |    7:15.10   |      136385      |     169019
       8  | 37:33.45 |    5:33.71   |      169020      |     194065
       9  | 43:07.41 |    5:07.17   |      194066      |     217107
      10  | 48:14.58 |    1:52.48   |      217108      |     225555
Характеристики диапазона извлечения и сообщения об ошибках
Выбранный диапазон
     Имя файла C:\Users\Алексей\Desktop\iPOD\Negative Format - Static EP.wav
     Пиковый уровень 100.0 %
     Качество диапазона 100.0 %
     CRC теста 1A8552BE
     CRC копии 1A8552BE
     Копирование... OK
Ошибок не произошло
AccurateRip: сводка
Трек  1  точное извлечение (доверие 2)  [E2CBE012]
Трек  2  точное извлечение (доверие 2)  [761A5FC9]
Трек  3  точное извлечение (доверие 2)  [D6E67F57]
Трек  4  точное извлечение (доверие 2)  [1ECB91B8]
Трек  5  точное извлечение (доверие 2)  [E929C81C]
Трек  6  точное извлечение (доверие 2)  [BD0BE3C5]
Трек  7  точное извлечение (доверие 2)  [7D80864D]
Трек  8  точное извлечение (доверие 2)  [D7E520BA]
Трек  9  точное извлечение (доверие 2)  [576C193A]
Трек 10  точное извлечение (доверие 2)  [95C2F042]
Все треки извлечены точно
Конец отчёта
Код:
REM GENRE "EBM Techno"
REM DATE 2002
REM DISCID 900BBF0A
REM COMMENT "ExactAudioCopy v0.99pb5"
PERFORMER "Negative Format"
TITLE "Static EP"
FILE "Negative Format - Static EP.flac" WAVE
  TRACK 01 AUDIO
    TITLE "[begin transmission]"
    PERFORMER "Negative Format"
    INDEX 01 00:00:00
  TRACK 02 AUDIO
    TITLE "Static"
    PERFORMER "Negative Format"
    INDEX 01 00:40:17
  TRACK 03 AUDIO
    TITLE "Downfall"
    PERFORMER "Negative Format"
    INDEX 00 06:50:36
    INDEX 01 06:52:36
  TRACK 04 AUDIO
    TITLE "Static (Genocide Mix by Informatik)"
    PERFORMER "Negative Format"
    INDEX 00 13:34:49
    INDEX 01 13:36:49
  TRACK 05 AUDIO
    TITLE "Gateway"
    PERFORMER "Negative Format"
    INDEX 00 18:13:71
    INDEX 01 18:15:71
  TRACK 06 AUDIO
    TITLE "Static (Remix by Headscan)"
    PERFORMER "Negative Format"
    INDEX 00 24:24:65
    INDEX 01 24:26:65
  TRACK 07 AUDIO
    TITLE "Sense"
    PERFORMER "Negative Format"
    INDEX 00 30:16:35
    INDEX 01 30:18:35
  TRACK 08 AUDIO
    TITLE "N.E.A.R. (Aiboforcen Mix)"
    PERFORMER "Negative Format"
    INDEX 00 37:31:45
    INDEX 01 37:33:45
  TRACK 09 AUDIO
    TITLE "Static (Implant Rmx)"
    PERFORMER "Negative Format"
    INDEX 00 43:05:41
    INDEX 01 43:07:41
  TRACK 10 AUDIO
    TITLE "[end transmission]"
    PERFORMER "Negative Format"
    INDEX 00 48:12:58
    INDEX 01 48:14:58
Код:
[url=https://fastpic.ru/view/13/2011/0109/6eda24af008e3c5b0ab427c081b0d6f8.jpg.html][img]http://i13.fastpic.ru/thumb/2011/0109/f8/6eda24af008e3c5b0ab427c081b0d6f8.jpeg[/img][/url][url=https://fastpic.ru/view/13/2011/0109/33adaf8f32966e0270f5bf2189eaa911.jpg.html][img]http://i13.fastpic.ru/thumb/2011/0109/11/33adaf8f32966e0270f5bf2189eaa911.jpeg[/img][/url][url=https://fastpic.ru/view/13/2011/0109/0c3cca3cb076d8a65cf5485a6554b3f1.jpg.html][img]http://i13.fastpic.ru/thumb/2011/0109/f1/0c3cca3cb076d8a65cf5485a6554b3f1.jpeg[/img][/url][url=https://fastpic.ru/view/13/2011/0109/b32f9e80988589bb25f521e2f4cce687.jpg.html][img]http://i13.fastpic.ru/thumb/2011/0109/87/b32f9e80988589bb25f521e2f4cce687.jpeg[/img][/url]
1997 - Pathologic Syndrome, Sleasy
1998 - Result Of A New Culture
2000 - Distant Pulses, Sleasy
2002 - Massiv In Mensch / Negative Format - Uturn: An Exploration In Trance, Sleasy
2002 - Static EP
2003 - Cipher Method, Sleasy
2006 - Moving Past The Boundaries, Monodark
2008 - Gradients, Sleasy
ОГРОМНАЯ БЛАГОДАРНОСТЬ НАШЕМУ КОЛЛЕГЕ KERGARN`у ЗА СКАНЫ!!!
Правила, инструкции, FAQ!!!
Торрент  Добавлен [26 июн 2020, 17:04] Скачать торрент Магнет ссылка
Скачать торрент
[ Размер 14.01 КБ / Просмотров 3 ]

Статус
Проверен 
 
Размер  331.53 МБ
Приватный: Нет (DHT включён)
.torrent скачан  0
 


     Отправить личное сообщение
   
Страница 1 из 1
Показать сообщения за:  Поле сортировки  
Начать новую тему Ответить на тему


Сейчас этот форум просматривают: нет зарегистрированных пользователей и гости: 0


Вы не можете начинать темы
Вы не можете отвечать на сообщения
Вы не можете редактировать свои сообщения
Вы не можете удалять свои сообщения
Вы не можете добавлять вложения

Перейти:  
cron