Начать новую тему Ответить на тему
Статистика раздачи
Размер: 496.99 МБ | Добавлен: 26 июн 2020, 17:06 | Скачали: 0
Сидеров: 0  [0 байт/сек]    Личеров: 0  [0 байт/сек]
Пред. тема | След. тема 

Автор
Сообщение

СообщениеДобавлено: 26 июн 2020, 17:06 

Ответить с цитатой 

Negative Format / Result Of A New Culture
Жанр: EBM, Trance
Страна-производитель диска: Germany
Год издания диска: 1998
Издатель (лейбл): Zoth Ommog
Номер по каталогу: CD ZOT 244
Страна: USA
Аудио кодек: FLAC (*.flac)
Тип рипа: image+.cue
Битрейт аудио: lossless
Продолжительность: 1:10:17.06
Источник (релизер): CD из личной коллекции.
Наличие сканов в содержимом раздачи: да
Треклист:
01. Deadlock 5:02
02. Subtle Infestation 5:50
03. Synthetic Relay 5:28
04. Frozen 5:08
05. Our Mechanix 5:39
06. Liquid Transmission 4:16
07. Proximity Reconstruction 6:18
08. Time FX 4:01
09. Sector 9 9:10
10. Embracing Subversion 6:03
11. Vile Extremes 3:36
12. Liquid Transmission (Aghast View Psycho Mix) 4:53
13. Deadlock (NCC Remix) 4:42
Код:
Exact Audio Copy V0.99 prebeta 5 from 4. May 2009
Отчёт EAC об извлечении, выполненном 7. января 2011, 15:13
Negative Format / Result Of A New Culture
Дисковод: TSSTcorpCDDVDW TS-L632H   Adapter: 0  ID: 0
Режим чтения                 : Достоверность
Использование точного потока : Да
Отключение кэша аудио        : Да
Использование указателей C2  : Нет
Коррекция смещения при чтении                     : 6
Способность читать области Lead-in и Lead-out     : Нет
Заполнение пропущенных сэмплов тишиной            : Да
Удаление блоков с тишиной в начале и конце        : Нет
При вычислениях CRC использовались нулевые сэмплы : Да
Интерфейс                                         : Встроенный Win32-интерфейс для Win NT/2000
Выходной формат          : Пользовательский кодировщик
Выбранный битрейт        : 1024 kBit/s
Качество                 : Высокий
Добавление ID3-тэга      : Нет
Утилита сжатия           : C:\Program Files\Exact Audio Copy\FLAC\FLAC.EXE
Дополнительные параметры : -6 -V -T "ARTIST=%a" -T "TITLE=%t" -T "ALBUM=%g" -T "DATE=%y" -T "TRACKNUMBER=%n" -T "GENRE=%m" -T "COMMENT=%e" %s -o %d
TOC извлечённого CD
     Трек |   Старт  | Длительность | Начальный сектор | Конечный сектор
    ---------------------------------------------------------------------
       1  |  0:00.00 |    5:05.66   |           0      |      22940
       2  |  5:05.66 |    5:50.60   |       22941      |      49250
       3  | 10:56.51 |    5:28.26   |       49251      |      73876
       4  | 16:25.02 |    5:08.55   |       73877      |      97031
       5  | 21:33.57 |    5:39.49   |       97032      |     122505
       6  | 27:13.31 |    4:16.28   |      122506      |     141733
       7  | 31:29.59 |    6:18.50   |      141734      |     170133
       8  | 37:48.34 |    4:01.49   |      170134      |     188257
       9  | 41:50.08 |    9:10.09   |      188258      |     229516
      10  | 51:00.17 |    6:03.57   |      229517      |     256798
      11  | 57:03.74 |    3:36.58   |      256799      |     273056
      12  | 60:40.57 |    4:53.24   |      273057      |     295055
      13  | 65:34.06 |    4:43.00   |      295056      |     316280
Характеристики диапазона извлечения и сообщения об ошибках
Выбранный диапазон
     Имя файла C:\Users\Алексей\Desktop\iPOD\Negative Format - Result Of A New Culture.wav
     Пиковый уровень 100.0 %
     Качество диапазона 99.9 %
     CRC теста 7F80B8E6
     CRC копии 7F80B8E6
     Копирование... OK
Ошибок не произошло
AccurateRip: сводка
Трек  1  точность не определена (достоверность 8)  [9B9C6D1A], AccurateRip вернул [E459DE63]
Трек  2  точность не определена (достоверность 8)  [880A9EE1], AccurateRip вернул [3D0F2CA1]
Трек  3  точность не определена (достоверность 8)  [85EEA637], AccurateRip вернул [B4FF912E]
Трек  4  точность не определена (достоверность 8)  [561B7F4F], AccurateRip вернул [3AAD640A]
Трек  5  точность не определена (достоверность 8)  [49BD3148], AccurateRip вернул [640180C9]
Трек  6  точность не определена (достоверность 8)  [04E44B71], AccurateRip вернул [D2081DBC]
Трек  7  точность не определена (достоверность 8)  [905F87C8], AccurateRip вернул [B76EFCBB]
Трек  8  точность не определена (достоверность 8)  [807348BC], AccurateRip вернул [35F647B5]
Трек  9  точность не определена (достоверность 8)  [422E8676], AccurateRip вернул [104B16EE]
Трек 10  точность не определена (достоверность 8)  [7EBA07DA], AccurateRip вернул [D7AF38A3]
Трек 11  точность не определена (достоверность 8)  [8BC89AB4], AccurateRip вернул [9C080CA3]
Трек 12  точность не определена (достоверность 8)  [AACDC39A], AccurateRip вернул [24C018C3]
Трек 13  точность не определена (достоверность 8)  [5CCD855B], AccurateRip вернул [9D933A9F]
Ни один трек не прошёл проверки на точность
В вашей базе может быть иной вариант штамповки диска
Конец отчёта
Код:
REM GENRE Electronic
REM DATE 1998
REM DISCID BC10790D
REM COMMENT "ExactAudioCopy v0.99pb5"
PERFORMER "Negative Format"
TITLE "Result Of A New Culture"
FILE "Negative Format - Result Of A New Culture.flac" WAVE
  TRACK 01 AUDIO
    TITLE "Deadlock"
    PERFORMER "Negative Format"
    INDEX 01 00:00:00
  TRACK 02 AUDIO
    TITLE "Subtle Infestation"
    PERFORMER "Negative Format"
    INDEX 00 05:03:65
    INDEX 01 05:05:66
  TRACK 03 AUDIO
    TITLE "Synthetic Relay"
    PERFORMER "Negative Format"
    INDEX 00 10:54:48
    INDEX 01 10:56:51
  TRACK 04 AUDIO
    TITLE "Frozen"
    PERFORMER "Negative Format"
    INDEX 00 16:23:00
    INDEX 01 16:25:02
  TRACK 05 AUDIO
    TITLE "Our Mechanix"
    PERFORMER "Negative Format"
    INDEX 00 21:31:55
    INDEX 01 21:33:57
  TRACK 06 AUDIO
    TITLE "Liquid Transmission"
    PERFORMER "Negative Format"
    INDEX 00 27:11:28
    INDEX 01 27:13:31
  TRACK 07 AUDIO
    TITLE "Proximity Reconstruction"
    PERFORMER "Negative Format"
    INDEX 00 31:27:56
    INDEX 01 31:29:59
  TRACK 08 AUDIO
    TITLE "Time Fx"
    PERFORMER "Negative Format"
    INDEX 00 37:46:31
    INDEX 01 37:48:34
  TRACK 09 AUDIO
    TITLE "Sector 9,9.09"
    PERFORMER "Negative Format"
    INDEX 00 41:48:05
    INDEX 01 41:50:08
  TRACK 10 AUDIO
    TITLE "Embracing Subversion"
    PERFORMER "Negative Format"
    INDEX 00 50:58:15
    INDEX 01 51:00:17
  TRACK 11 AUDIO
    TITLE "Vile Extremes"
    PERFORMER "Negative Format"
    INDEX 00 57:01:71
    INDEX 01 57:03:74
  TRACK 12 AUDIO
    TITLE "Liquid Transmission (Aghast View Psycho Mix)"
    PERFORMER "Negative Format"
    INDEX 00 60:38:55
    INDEX 01 60:40:57
  TRACK 13 AUDIO
    TITLE "Deadlock (Ncc Remix)"
    PERFORMER "Negative Format"
    INDEX 00 65:32:05
    INDEX 01 65:34:06
Код:
[url=https://fastpic.ru/view/13/2011/0108/ef12df91e5061241c29b3ac59d5aefb7.jpg.html][img]http://i13.fastpic.ru/thumb/2011/0108/b7/ef12df91e5061241c29b3ac59d5aefb7.jpeg[/img][/url][url=https://fastpic.ru/view/13/2011/0108/0ce78188c5253b98cb1363294bad4ef7.jpg.html][img]http://i13.fastpic.ru/thumb/2011/0108/f7/0ce78188c5253b98cb1363294bad4ef7.jpeg[/img][/url][url=https://fastpic.ru/view/13/2011/0108/e100d6419edb1fa44cee9cc8c6d5cd52.jpg.html][img]http://i13.fastpic.ru/thumb/2011/0108/52/e100d6419edb1fa44cee9cc8c6d5cd52.jpeg[/img][/url][url=https://fastpic.ru/view/13/2011/0108/6ea212886586bc028f8d5aee0d5dfc10.jpg.html][img]http://i13.fastpic.ru/thumb/2011/0108/10/6ea212886586bc028f8d5aee0d5dfc10.jpeg[/img][/url]
1997 - Pathologic Syndrome, Sleasy
1998 - Result Of A New Culture
2000 - Distant Pulses, Sleasy
2002 - Massiv In Mensch / Negative Format - Uturn: An Exploration In Trance, Sleasy
2002 - Static EP
2003 - Cipher Method, Sleasy
2006 - Moving Past The Boundaries, Monodark
2008 - Gradients, Sleasy
ОГРОМНАЯ БЛАГОДАРНОСТЬ НАШЕМУ КОЛЛЕГЕ KERGARN`у ЗА СКАНЫ!!!
Правила, инструкции, FAQ!!!
Торрент  Добавлен [26 июн 2020, 17:06] Скачать торрент Магнет ссылка
Скачать торрент
[ Размер 20.65 КБ / Просмотров 3 ]

Статус
Проверен 
 
Размер  496.99 МБ
Приватный: Нет (DHT включён)
.torrent скачан  0
 


     Отправить личное сообщение
   
Страница 1 из 1
Показать сообщения за:  Поле сортировки  
Начать новую тему Ответить на тему


Сейчас этот форум просматривают: нет зарегистрированных пользователей и гости: 0


Вы не можете начинать темы
Вы не можете отвечать на сообщения
Вы не можете редактировать свои сообщения
Вы не можете удалять свои сообщения
Вы не можете добавлять вложения

Перейти:  
cron