Начать новую тему Ответить на тему
Статистика раздачи
Размер: 422.56 МБ | Добавлен: 26 июн 2020, 17:23 | Скачали: 0
Сидеров: 0  [0 байт/сек]    Личеров: 0  [0 байт/сек]
Пред. тема | След. тема 

Автор
Сообщение

СообщениеДобавлено: 26 июн 2020, 17:23 

Ответить с цитатой 

Negative Format - Cipher Method
Жанр: EBM, Trance, Industrial
Год выпуска диска: 2003
Производитель диска: Germany
Аудио кодек: FLAC
Тип рипа: tracks+.cue
Битрейт аудио: lossless
Трэклист:
1 Cipher (5:08)
2 Automate (7:09)
3 Transfer (6:41)
4 Schema (6:21)
5 Algorythm (5:06)
6 Senseless (5:49)
7 Vertex (6:40)
8 Static (6:12)
9 Encryption (6:01)
10 Downfall (Atmosphere) (7:15)
11 Packet Filter (6:34)
Доп. информация:
Exact Audio Copy V0.99 prebeta 4 from 23. January 2008
EAC extraction logfile from 23. November 2008, 1:11
Negative Format / Cipher Method
Used drive : _NEC DVD+-RW ND-6650A Adapter: 2 ID: 0
Read mode : Secure
Utilize accurate stream : Yes
Defeat audio cache : Yes
Make use of C2 pointers : No
Read offset correction : 48
Overread into Lead-In and Lead-Out : No
Fill up missing offset samples with silence : Yes
Delete leading and trailing silent blocks : No
Null samples used in CRC calculations : Yes
Used interface : Installed external ASPI interface
Gap handling : Appended to previous track
Used output format : User Defined Encoder
Selected bitrate : 1024 kBit/s
Quality : High
Add ID3 tag : No
Command line compressor : C:\Program Files\Exact Audio Copy2\Flac\flac.exe
Additional command line options : -8 -V -T "ARTIST=%a" -T "TITLE=%t" -T "ALBUM=%g" -T "DATE=%y" -T "TRACKNUMBER=%n" -T "GENRE=%m" -T "COMMENT=%e" %s -o %d
TOC of the extracted CD
Track | Start | Length | Start sector | End sector
---------------------------------------------------------
1 | 0:00.00 | 5:08.41 | 0 | 23140
2 | 5:08.41 | 7:09.45 | 23141 | 55360
3 | 12:18.11 | 6:41.12 | 55361 | 85447
4 | 18:59.23 | 6:21.52 | 85448 | 114074
5 | 25:21.00 | 5:06.74 | 114075 | 137098
6 | 30:27.74 | 5:49.69 | 137099 | 163342
7 | 36:17.68 | 6:40.63 | 163343 | 193405
8 | 42:58.56 | 6:12.17 | 193406 | 221322
9 | 49:10.73 | 6:01.06 | 221323 | 248403
10 | 55:12.04 | 7:15.53 | 248404 | 281081
11 | 62:27.57 | 6:34.47 | 281082 | 310678
Track 1
Filename C:\EAC\01-cipher.wav
Pre-gap length 0:00:02.00
Peak level 99.9 %
Track quality 100.0 %
Test CRC 270E645E
Copy CRC 270E645E
Copy OK
Track 2
Filename C:\EAC\02-automate.wav
Peak level 100.0 %
Track quality 100.0 %
Test CRC AEF0B257
Copy CRC AEF0B257
Copy OK
Track 3
Filename C:\EAC\03-transfer.wav
Pre-gap length 0:00:02.00
Peak level 99.9 %
Track quality 100.0 %
Test CRC 7475241B
Copy CRC 7475241B
Copy OK
Track 4
Filename C:\EAC\04-schema.wav
Pre-gap length 0:00:02.00
Peak level 99.9 %
Track quality 100.0 %
Test CRC DA43269A
Copy CRC DA43269A
Copy OK
Track 5
Filename C:\EAC\05-algorythm.wav
Pre-gap length 0:00:02.00
Peak level 100.0 %
Track quality 100.0 %
Test CRC 83ECFD30
Copy CRC 83ECFD30
Copy OK
Track 6
Filename C:\EAC\06-senseless.wav
Pre-gap length 0:00:02.00
Peak level 100.0 %
Track quality 100.0 %
Test CRC 135B0C18
Copy CRC 135B0C18
Copy OK
Track 7
Filename C:\EAC\07-vertex.wav
Pre-gap length 0:00:02.00
Peak level 99.9 %
Track quality 100.0 %
Test CRC 048D1C66
Copy CRC 048D1C66
Copy OK
Track 8
Filename C:\EAC\08-static.wav
Pre-gap length 0:00:02.00
Peak level 100.0 %
Track quality 99.9 %
Test CRC 34AE7B35
Copy CRC 34AE7B35
Copy OK
Track 9
Filename C:\EAC\09-encryption.wav
Pre-gap length 0:00:02.00
Peak level 99.9 %
Track quality 100.0 %
Test CRC 87503A60
Copy CRC 87503A60
Copy OK
Track 10
Filename C:\EAC\10-downfall (atmosphere).wav
Pre-gap length 0:00:02.00
Peak level 99.9 %
Track quality 100.0 %
Test CRC 652AB7F1
Copy CRC 652AB7F1
Copy OK
Track 11
Filename C:\EAC\11-packet filter.wav
Pre-gap length 0:00:02.00
Peak level 99.9 %
Track quality 100.0 %
Test CRC 0CA165B7
Copy CRC 0CA165B7
Copy OK
No errors occurred
End of status report
Label: Out Of Line
Catalog#: OUT 102
Credits: Artwork By [Frontcover Design] - Alex Matheu , Steph Dumais
Synthesizer, Vocals, Loops, Electronics [Beats, Sounds, Sample Manipulation], Producer, Mastered By - Alex Matheu
Notes: Produced and mastered at Sector 9 Studios in 2002.
Начну с того, что я не являюсь большим поклонником двух первых альбомов ("Result Of A New Culture" и "Distant Pulses") Alex Matheu ака NEGATIVE FORMAT, но после прослушивания последних релизов музыканта (в частности, EP "Static", split-CD c MASSIVE IN MENSCH "Uturn 1" и нескольких удачных ремиксов) я заимел хорошие виды на его третий полноформатник. Так уж получилось, что с некоторым опозданием и отставанием от своих зарубежных коллег-критиков я только в августе прослушал февральский альбом "Cipher Method" и теперь спешу сообщить вам, что мои ожидания и денежные инвестиции оказались ненапрасными. Новые треки американца сделаны в стилистике модного нынче трэнс-ЕВМ с постоянно присутствующими роботизированными "крафтверковскими" вокодерами, классно озвучивающими лаконичные кибер-тексты, и на редкость захватывающей sci-fi атмосферой. Практически весь материал альбома ориентирован только на стильные клубные танцполы (в том числе электро-индустриальные или рэйвы) и очень четко выдержан стилистически. Никаких бросаний из стиля в стиль и заигрывания с "чужеродными" ритмическими лупами или электронными эффектами мной в песнях замечено не было. Якобы присутствующие в программе элементы drum-n-bass так и остались зачаточными звуковыми галлюцинациями (в частности, последними немножко "грешат" номер "Algorythm" и красивая финальная вещь "Packet Filter"). Все-таки на этом диске повсеместно доминирует и красуется кристально чистый и интеллигентный, энергичный и гибкий, драйвовый и ультрамелодичный гиперэлектрический постиндустриальный боди-трэнс, уносящий на далекие от Земли космические орбиты или в глубины массового клубного подсознания. Если вы ранее слышали треки группы, и они вам понравились, то на "Cipher Method" вы найдете только самые лучшие, самые отборные композиции из тех, что были созданы артистом в 2002-2003 годах. Далее, на фоне других групп, достигших высокого исполнительского уровня и широко признанных на трэнс-ЕВМ сцене, звучание NEGATIVE FORMAT отличают подчеркнуто заумные, даже эстетские аранжировки с жирными басами, подпрыгивающими мячиками-битами и холодными атмосферными синтезаторными проигрышами, местами просто гениальные мелодические ходы и особая плавучесть, текучесть, органичность электронных образцов. Отсюда следует вывод, что стиль NEGATIVE FORMAT легко узнаваем, самодостаточен и уникален. Кстати, композитор-электроник верно заметил в интервью для нашей газеты, что его новая программа будет слушаться на одном дыхании и содержит приятные вариации в настроении и скорости целостного танцевального потока музыки. Для получения наиболее интенсивного фидбэка лучше всего слушать диск именно за один заход, хотя для непосед и ди-джеев выбор здесь также весьма богат. Также обращаю ваше внимание на то, как технично, вдохновенно и изобретательно Alex Matheu претворяет свои идеи в общем-то в довольно узких музыкальных рамках. Его на первый взгляд похожие друг на друга треки под завязку насыщены мелкими деталями, речевыми и шумовыми сэмплам, а шести- и семиминутные мелодии, прежде чем достигнуть финальных аккордов, элегантно и без резких скачков движутся по сменяющим друг друга громадным параболам и гиперболам. Разумеется, от таких пируэтов появляется легкое головокружение и по телу растекается сладкий адреналин. Боевиками назвать особенно сильные композиции альбома (для меня это "Cipher", "Transfer", "Static", "Senseless", "Dawnfall [Atmosphere]") я не могу, потому что в данном конкретном случае этот термин выглядит грубовато. Скорее перед нами красивые хореографические постановки из области современного электронного балета. Так и представляю себе шикарное дефиле под футуристическую музыку NEGATIVE FORMAT (камешек "в огород" постановщиков модных шоу-показов). Итак, со своим хитро срежиссированным, дико цепляющим, танцевальным и совершенно ненадоедающим альбомом "Cipher Method" NEGATIVE FORMAT сегодня видится мне фигурой номер один на трэнс-ЕВМ сцене. Еще месяц назад я бы такое даже не рискнул предположить… Превзойти данный результат в ближайшее время по силам разве что канадцам HEADSCAN, при условии, что последние сильно постараются и прыгнут выше головы на втором альбоме. В общем, снова мои специальные рекомендации - полагаю, что именно этот диск многие фанаты трэнс-ЕВМ уже поставили или в скором времени поставят в самые ценные разделы своих электро-нойз-индустриальных фонотек и будут частенько переслушивать даже спустя несколько лет. [10 баллов]
www.negativeformat.com
www.sector9studios.com
vAlien/DJ Commando LABELLA
Правила, инструкции, FAQ!!!
Торрент  Добавлен [26 июн 2020, 17:23] Скачать торрент Магнет ссылка
Скачать торрент
[ Размер 17.62 КБ / Просмотров 10 ]

Статус
Проверен 
 
Размер  422.56 МБ
Приватный: Нет (DHT включён)
.torrent скачан  0
 


     Отправить личное сообщение
   
Страница 1 из 1
Показать сообщения за:  Поле сортировки  
Начать новую тему Ответить на тему


Сейчас этот форум просматривают: нет зарегистрированных пользователей и гости: 0


Вы не можете начинать темы
Вы не можете отвечать на сообщения
Вы не можете редактировать свои сообщения
Вы не можете удалять свои сообщения
Вы не можете добавлять вложения

Перейти:  
cron