Начать новую тему Ответить на тему
Статистика раздачи
Размер: 97.39 МБ | Добавлен: 26 июн 2020, 20:23 | Скачали: 0
Сидеров: 0  [0 байт/сек]    Личеров: 0  [0 байт/сек]
Пред. тема | След. тема 

Автор
Сообщение

СообщениеДобавлено: 26 июн 2020, 20:23 

Ответить с цитатой 

Leæther Strip / Sex Dwarf
Жанр: EBM
Страна-производитель диска: Germany
Год издания диска: 2011
Издатель (лейбл): Black Rain
Номер по каталогу: BR087
Страна: Germany
Аудиокодек: FLAC (*.flac)
Тип рипа: image+.cue
Битрейт аудио: lossless
Продолжительность: 0:13:34.29
Источник (релизер): Собственный рип
Наличие сканов в содержимом раздачи: нет
Треклист:
01. Sex Dwarf
02. Spellbound
03. To Suffer Is To Live
Код:
Exact Audio Copy V1.0 beta 3 from 29. August 2011
Отчёт EAC об извлечении, выполненном 24. октября 2011, 1:13
Leæther Strip / Sex Dwarf
Дисковод: TSSTcorpCDDVDW SH-S223C   Adapter: 1  ID: 0
Режим чтения                 : Достоверность
Использование точного потока : Да
Отключение кэша аудио        : Да
Использование указателей C2  : Нет
Коррекция смещения при чтении                     : 697
Способность читать области Lead-in и Lead-out     : Нет
Заполнение пропущенных сэмплов тишиной            : Да
Удаление блоков с тишиной в начале и конце        : Нет
При вычислениях CRC использовались нулевые сэмплы : Да
Интерфейс                                         : Встроенный Win32-интерфейс для Win NT/2000
Выходной формат          : Пользовательский кодировщик
Выбранный битрейт        : 768 kBit/s
Качество                 : Высокий
Добавление ID3-тега      : Нет
Утилита сжатия           : C:\Program Files\Exact Audio Copy\FLAC\FLAC.EXE
Дополнительные параметры : -6 -V -T "ARTIST=%artist%" -T "TITLE=%title%" -T "ALBUM=%albumtitle%" -T "DATE=%year%" -T "TRACKNUMBER=%tracknr%" -T "GENRE=%genre%" -T "COMMENT=%comment%" -T "BAND=%albuminterpret%" -T "ALBUMARTIST=%albuminterpret%" -T "COMPOSER=%composer%" %haslyrics%--tag-from-file=LYRICS="%lyricsfile%"%haslyrics% -T "DISCNUMBER=%cdnumber%" -T "TOTALDISCS=%totalcds%" -T "TOTALTRACKS=%numtracks%" %hascover%--picture="%coverfile%"%hascover% %source% -o %dest%
TOC извлечённого CD
     Трек |   Старт  | Длительность | Начальный сектор | Конечный сектор
    ---------------------------------------------------------------------
       1  |  0:00.00 |    4:34.64   |           0      |      20613
       2  |  4:34.64 |    4:30.63   |       20614      |      40926
       3  |  9:05.52 |    4:28.52   |       40927      |      61078
Характеристики диапазона извлечения и сообщения об ошибках
Выбранный диапазон
     Имя файла C:\EAC\Leæther Strip - Sex Dwarf (2011)\Leæther Strip - Sex Dwarf.wav
     Пиковый уровень 98.9 %
     Скорость извлечения 2.4 X
     Качество диапазона 99.9 %
     CRC теста 053001E6
     CRC копии 053001E6
     Копирование... OK
Ошибок не произошло
AccurateRip: сводка
Трек  1  отсутствует в базе данных
Трек  2  отсутствует в базе данных
Трек  3  отсутствует в базе данных
Ни одного трека нет в базе AccurateRip
Конец отчёта
==== Контрольная сумма отчёта 109ECF2BB710E69965068F853A7ABA2EBF5E4F607308379FB57D622F4176FC99 ====
Код:
REM GENRE Industrial
REM DATE 2011
REM DISCID 21032E03
REM COMMENT "ExactAudioCopy v1.0b3"
PERFORMER "Le.ther Strip"
TITLE "Sex Dwarf"
FILE "Le.ther Strip - Sex Dwarf.flac" WAVE
  TRACK 01 AUDIO
    TITLE "Sex Dwarf "
    PERFORMER "Le.ther Strip"
    INDEX 01 00:00:00
  TRACK 02 AUDIO
    TITLE "Spellbound"
    PERFORMER "Le.ther Strip"
    INDEX 00 04:32:65
    INDEX 01 04:34:64
  TRACK 03 AUDIO
    TITLE "To Suffer Is To Live"
    PERFORMER "Le.ther Strip"
    INDEX 00 09:03:53
    INDEX 01 09:05:52


Правила, инструкции, FAQ!!!
Торрент  Добавлен [26 июн 2020, 20:23] Скачать торрент Магнет ссылка
Скачать торрент
[ Размер 16.1 КБ / Просмотров 10 ]

Статус
Проверен 
 
Размер  97.39 МБ
Приватный: Нет (DHT включён)
.torrent скачан  0
 


     Отправить личное сообщение
   
Страница 1 из 1
Показать сообщения за:  Поле сортировки  
Начать новую тему Ответить на тему


Сейчас этот форум просматривают: нет зарегистрированных пользователей и гости: 0


Вы не можете начинать темы
Вы не можете отвечать на сообщения
Вы не можете редактировать свои сообщения
Вы не можете удалять свои сообщения
Вы не можете добавлять вложения

Перейти:  
cron