Начать новую тему Ответить на тему
Статистика раздачи
Размер: 798.95 МБ | Добавлен: 26 июн 2020, 20:47 | Скачали: 0
Сидеров: 0  [0 байт/сек]    Личеров: 0  [0 байт/сек]
Пред. тема | След. тема 

Автор
Сообщение

СообщениеДобавлено: 26 июн 2020, 20:47 

Ответить с цитатой 

The Sexorcist

Жанр: EBM | Страна: Germany | Годы: 2015 - 2016
Лейбл: Out Of Line | Аудиокодек: FLAC (*.flac)
Тип рипа: image .cue / tracks | Битрейт аудио: lossless
Продолжительность: ~01:34:40
Жанр: EBM
Носитель: CD
Страна: Germany
Год издания: 2015 [ Discogs ]
Издатель (лейбл): Out Of Line
Номер по каталогу: OUT 756 / 757
Аудиокодек: FLAC (*.flac)
Тип рипа: image .cue
Битрейт аудио: lossless
Продолжительность: 00:53:25, 00:20:58
Наличие сканов: да (600 dpi, .jpg)
Источник: new-team
Аудиокодек: FLAC (*.flac)
Тип рипа: image .cue
Битрейт аудио: lossless
Продолжительность: 00:53:25
Треклист:
01. Lebenslauf (03:50)
02. Tokio (03:40)
03. Concept Of Hate (04:09)
04. Klangk örper (02:49)
05. Unter Deiner Haut (03:55)
06. Hate Anthem (04:25)
07. Erotik (F.Alco.Hol Version) (03:55)
08. Deine Augen (03:47)
09. Alles Oder Nichts (Instr.) (04:27)
10. Wahrer Glaube (03:54)
11. Koma (04:06)
12. Arschlochsong (02:52)
13. V1s1ob1bl1ophob1a (04:03)
14. Sexorcist (03:33)
Код:
Exact Audio Copy V1.1 from 23. June 2015
Отчёт EAC об извлечении, выполненном 3. января 2016, 14:07
The Sexorcist / Klangkorper
Дисковод: PIONEER DVD-RW  DVR-XD10   Adapter: 1  ID: 2
Режим чтения                 : Достоверность
Использование точного потока : Да
Отключение кэша аудио        : Да
Использование указателей C2  : Нет
Коррекция смещения при чтении                     : 96
Способность читать области Lead-in и Lead-out     : Нет
Заполнение пропущенных сэмплов тишиной            : Да
Удаление блоков с тишиной в начале и конце        : Нет
При вычислениях CRC использовались нулевые сэмплы : Да
Интерфейс                                         : Встроенный Win32-интерфейс для Win NT/2000
Выходной формат          : Пользовательский кодировщик
Выбранный битрейт        : 1024 kBit/s
Качество                 : Высокий
Добавление ID3-тега      : Нет
Утилита сжатия           : C:\Program Files\Flac\flac.exe
Дополнительные параметры : -V -8 -T "Comment=ripped by termoflex [special for  СПАМ -T "Date=%year%" -T "Genre=%genre%" %source%
TOC извлечённого CD
     Трек |   Старт  | Длительность | Начальный сектор | Конечный сектор
    ---------------------------------------------------------------------
       1  |  0:00.00 |    3:49.58   |           0      |      17232
       2  |  3:49.58 |    3:39.41   |       17233      |      33698
       3  |  7:29.24 |    4:09.08   |       33699      |      52381
       4  | 11:38.32 |    2:48.64   |       52382      |      65045
       5  | 14:27.21 |    3:55.04   |       65046      |      82674
       6  | 18:22.25 |    4:25.25   |       82675      |     102574
       7  | 22:47.50 |    3:55.19   |      102575      |     120218
       8  | 26:42.69 |    3:47.28   |      120219      |     137271
       9  | 30:30.22 |    4:26.38   |      137272      |     157259
      10  | 34:56.60 |    3:53.40   |      157260      |     174774
      11  | 38:50.25 |    4:06.01   |      174775      |     193225
      12  | 42:56.26 |    2:51.47   |      193226      |     206097
      13  | 45:47.73 |    4:03.17   |      206098      |     224339
      14  | 49:51.15 |    3:33.25   |      224340      |     240339
Характеристики диапазона извлечения и сообщения об ошибках
Выбранный диапазон
     Имя файла D:\Мои документы\Music\The Sexorcist - Klangkorper.wav
     Пиковый уровень 99.0 %
     Скорость извлечения 4.1 X
     Качество диапазона 100.0 %
     CRC теста 81F4969B
     CRC копии 81F4969B
     Копирование... OK
Ошибок не произошло
AccurateRip: сводка
Трек  1  отсутствует в базе данных
Трек  2  отсутствует в базе данных
Трек  3  отсутствует в базе данных
Трек  4  отсутствует в базе данных
Трек  5  отсутствует в базе данных
Трек  6  отсутствует в базе данных
Трек  7  отсутствует в базе данных
Трек  8  отсутствует в базе данных
Трек  9  отсутствует в базе данных
Трек 10  отсутствует в базе данных
Трек 11  отсутствует в базе данных
Трек 12  отсутствует в базе данных
Трек 13  отсутствует в базе данных
Трек 14  отсутствует в базе данных
Ни одного трека нет в базе AccurateRip
Конец отчёта
---- CUETools DB Plugin V2.1.6
[CTDB TOCID: M1QAAWow4zhtlGegTRR8Ob_uaD4-] disk not present in database
Submit result: M1QAAWow4zhtlGegTRR8Ob_uaD4- has been uploaded
==== Контрольная сумма отчёта 6108144AA7C676635F0A3155FD493CE5052854E12EFE6BD6A5E7C169E2D517B3 ====
Код:
REM GENRE EBM
REM DATE 2015
REM DISCID C20C840E
REM COMMENT "ExactAudioCopy v1.1"
CATALOG 4260158837569
PERFORMER "The Sexorcist"
TITLE "Klangkorper"
FILE "The Sexorcist - Klangkorper.flac" WAVE
  TRACK 01 AUDIO
    TITLE "Lebenslauf"
    PERFORMER "The Sexorcist"
    ISRC DEBZ71500255
    INDEX 01 00:00:00
  TRACK 02 AUDIO
    TITLE "Tokio"
    PERFORMER "The Sexorcist"
    ISRC DEBZ71500256
    INDEX 01 03:49:58
  TRACK 03 AUDIO
    TITLE "Concept Of Hate"
    PERFORMER "The Sexorcist"
    ISRC DEBZ71500257
    INDEX 01 07:29:24
  TRACK 04 AUDIO
    TITLE "Klangkorper"
    PERFORMER "The Sexorcist"
    ISRC DEBZ71500258
    INDEX 01 11:38:32
  TRACK 05 AUDIO
    TITLE "Unter Deiner Haut"
    PERFORMER "The Sexorcist"
    ISRC DEBZ71500259
    INDEX 01 14:27:21
  TRACK 06 AUDIO
    TITLE "Hate Anthem"
    PERFORMER "The Sexorcist"
    ISRC DEBZ71500260
    INDEX 01 18:22:25
  TRACK 07 AUDIO
    TITLE "Erotik (F.Alco.Hol Version)"
    PERFORMER "The Sexorcist"
    ISRC DEBZ71500261
    INDEX 01 22:47:50
  TRACK 08 AUDIO
    TITLE "Deine Augen"
    PERFORMER "The Sexorcist"
    ISRC DEBZ71500262
    INDEX 01 26:42:69
  TRACK 09 AUDIO
    TITLE "Alles Oder Nichts (Instr.)"
    PERFORMER "The Sexorcist"
    ISRC DEBZ71500263
    INDEX 01 30:30:22
  TRACK 10 AUDIO
    TITLE "Wahrer Glaube"
    PERFORMER "The Sexorcist"
    ISRC DEBZ71500264
    INDEX 01 34:56:60
  TRACK 11 AUDIO
    TITLE "Koma"
    PERFORMER "The Sexorcist"
    ISRC DEBZ71500265
    INDEX 01 38:50:25
  TRACK 12 AUDIO
    TITLE "Arschlochsong"
    PERFORMER "The Sexorcist"
    ISRC DEBZ71500266
    INDEX 01 42:56:26
  TRACK 13 AUDIO
    TITLE "V1S1OB1BL1OPHOB1A"
    PERFORMER "The Sexorcist"
    ISRC DEBZ71500267
    INDEX 01 45:47:73
  TRACK 14 AUDIO
    TITLE "Sexorcist"
    PERFORMER "The Sexorcist"
    ISRC DEBZ71500268
    INDEX 01 49:51:15
Аудиокодек: FLAC (*.flac)
Тип рипа: image .cue
Битрейт аудио: lossless
Продолжительность: 00:20:58
Треклист:
01. Smackdown (04:01)
02. When Darkness Falls (05:28)
03. Phonix (03:50)
04. Life Is A Bitch (03:56)
05. Unite (03:43)
Код:
Exact Audio Copy V1.1 from 23. June 2015
Отчёт EAC об извлечении, выполненном 3. января 2016, 14:31
The Sexorcist / Klangkorper (Bonus Tracks)
Дисковод: PIONEER DVD-RW  DVR-XD10   Adapter: 1  ID: 2
Режим чтения                 : Достоверность
Использование точного потока : Да
Отключение кэша аудио        : Да
Использование указателей C2  : Нет
Коррекция смещения при чтении                     : 96
Способность читать области Lead-in и Lead-out     : Нет
Заполнение пропущенных сэмплов тишиной            : Да
Удаление блоков с тишиной в начале и конце        : Нет
При вычислениях CRC использовались нулевые сэмплы : Да
Интерфейс                                         : Встроенный Win32-интерфейс для Win NT/2000
Выходной формат          : Пользовательский кодировщик
Выбранный битрейт        : 1024 kBit/s
Качество                 : Высокий
Добавление ID3-тега      : Нет
Утилита сжатия           : C:\Program Files\Flac\flac.exe
Дополнительные параметры : -V -8 -T "Comment=ripped by termoflex [special for  СПАМ -T "Date=%year%" -T "Genre=%genre%" %source%
TOC извлечённого CD
     Трек |   Старт  | Длительность | Начальный сектор | Конечный сектор
    ---------------------------------------------------------------------
       1  |  0:00.00 |    4:01.05   |           0      |      18079
       2  |  4:01.05 |    5:28.24   |       18080      |      42703
       3  |  9:29.29 |    3:50.17   |       42704      |      59970
       4  | 13:19.46 |    3:55.52   |       59971      |      77647
       5  | 17:15.23 |    3:43.13   |       77648      |      94385
Характеристики диапазона извлечения и сообщения об ошибках
Выбранный диапазон
     Имя файла D:\Мои документы\Music\The Sexorcist - Klangkorper (Bonus Tracks).wav
     Пиковый уровень 98.8 %
     Скорость извлечения 3.3 X
     Качество диапазона 100.0 %
     CRC теста 08C90B5C
     CRC копии 08C90B5C
     Копирование... OK
Ошибок не произошло
AccurateRip: сводка
Трек  1  отсутствует в базе данных
Трек  2  отсутствует в базе данных
Трек  3  отсутствует в базе данных
Трек  4  отсутствует в базе данных
Трек  5  отсутствует в базе данных
Ни одного трека нет в базе AccurateRip
Конец отчёта
---- CUETools DB Plugin V2.1.6
[CTDB TOCID: K69Zs2UOw3l7RqIgz3x4YhT6GwQ-] disk not present in database
Submit result: K69Zs2UOw3l7RqIgz3x4YhT6GwQ- has been uploaded
==== Контрольная сумма отчёта 418666F9E27C6EAA57C238B0FF538C138EBC5D99BEB226C93EA8EFAE019DC4E8 ====
Код:
REM GENRE EBM
REM DATE 2015
REM DISCID 2C04EA05
REM COMMENT "ExactAudioCopy v1.1"
CATALOG 4260158837576
PERFORMER "The Sexorcist"
TITLE "Klangkorper (Bonus Tracks)"
FILE "The Sexorcist - Klangkorper (Bonus Tracks).flac" WAVE
  TRACK 01 AUDIO
    TITLE "Smackdown"
    PERFORMER "The Sexorcist"
    ISRC DEBZ71500269
    INDEX 01 00:00:00
  TRACK 02 AUDIO
    TITLE "Where Darkness Falls"
    PERFORMER "The Sexorcist"
    ISRC DEBZ71500270
    INDEX 01 04:01:05
  TRACK 03 AUDIO
    TITLE "Phonix"
    PERFORMER "The Sexorcist"
    ISRC DEBZ71500271
    INDEX 01 09:29:29
  TRACK 04 AUDIO
    TITLE "Life Is A Bitch"
    PERFORMER "The Sexorcist"
    ISRC DEBZ71500272
    INDEX 01 13:19:46
  TRACK 05 AUDIO
    TITLE "Unite"
    PERFORMER "The Sexorcist"
    ISRC DEBZ71500273
    INDEX 01 17:15:23
#777Жанр: EBM
Носитель: CD
Страна: Germany
Год издания: 2016 [ Discogs ]
Издатель (лейбл): Out Of Line
Номер по каталогу: OUT 782
Аудиокодек: FLAC (*.flac)
Тип рипа: tracks
Битрейт аудио: lossless
Продолжительность: 00:20:17
Наличие сканов: нет
Источник: FWYH
Треклист:
01. Re(-e)volution (03:16)
02. Vegan (04:00)
03. Brandenburg (04:50)
04. Minimalkomplex (03:46)
05. Inferno (04:25)
Код:
-----------------------------------------------------------
Started at: Sunday, 25. 09. 2016. - 0:02.15
5 files found
1 -===- C:\Users\Public\Music\The Sexorcist - This Is Erotic Body Music (2016) [FLAC]\01 Re(-e)volution.flac
  Extracted successfully
  Conclusion: this track is CDDA with probability 99%
  Tempfile successfully deleted.
2 -===- C:\Users\Public\Music\The Sexorcist - This Is Erotic Body Music (2016) [FLAC]\02 Vegan.flac
  Extracted successfully
  Conclusion: this track is CDDA with probability 100%
  Tempfile successfully deleted.
3 -===- C:\Users\Public\Music\The Sexorcist - This Is Erotic Body Music (2016) [FLAC]\03 Brandenburg.flac
  Extracted successfully
  Conclusion: this track is CDDA with probability 100%
  Tempfile successfully deleted.
4 -===- C:\Users\Public\Music\The Sexorcist - This Is Erotic Body Music (2016) [FLAC]\04 Minimalkomplex.flac
  Extracted successfully
  Conclusion: this track is CDDA with probability 100%
  Tempfile successfully deleted.
5 -===- C:\Users\Public\Music\The Sexorcist - This Is Erotic Body Music (2016) [FLAC]\05 Inferno.flac
  Extracted successfully
  Conclusion: this track is CDDA with probability 100%
  Tempfile successfully deleted.
Finished at: Sunday, 25. 09. 2016. - 0:03.52 (operation time: 0:01.36)
Правила, инструкции, FAQ!!!
Торрент  Добавлен [26 июн 2020, 20:47] Скачать торрент Магнет ссылка
Скачать торрент
[ Размер 18.17 КБ / Просмотров 10 ]

Статус
Проверен 
 
Размер  798.95 МБ
Приватный: Нет (DHT включён)
.torrent скачан  0
 


     Отправить личное сообщение
   
Страница 1 из 1
Показать сообщения за:  Поле сортировки  
Начать новую тему Ответить на тему


Сейчас этот форум просматривают: нет зарегистрированных пользователей и гости: 0


Вы не можете начинать темы
Вы не можете отвечать на сообщения
Вы не можете редактировать свои сообщения
Вы не можете удалять свои сообщения
Вы не можете добавлять вложения

Перейти:  
cron