Начать новую тему Ответить на тему
Статистика раздачи
Размер: 497.04 МБ | Добавлен: 26 июн 2020, 19:46 | Скачали: 0
Сидеров: 0  [0 байт/сек]    Личеров: 0  [0 байт/сек]
Пред. тема | След. тема 

Автор
Сообщение

СообщениеДобавлено: 26 июн 2020, 19:46 

Ответить с цитатой 

The-Pulsar / Awakening
Жанр: EBM
Страна-производитель диска: РФ
Год издания диска: 2005
Издатель (лейбл): Advoxya
Номер по каталогу: ad-04-cd
Страна: РФ
Аудио кодек: FLAC (*.flac)
Тип рипа: image+.cue
Битрейт аудио: lossless
Продолжительность: 01:03:00
Источник (релизер): Личный диск
Наличие сканов в содержимом раздачи: да
Треклист:
01. Salvation Pt.1 (Intro) 2:07
02. Leaving Underground 6:32
03. Point Of No Return 5:48
04. Huge Satisfaction 6:27
05. Tell Me… 5:05
06. Salvation Pt.2 (Middle) 4:24
07. Awakening 5:49
08. Father (In Memory Of My Father) 8:08
09. Stalker 8:54
10. Resistance 6:16
11. Salvation Pt.3 (Final) 3:22
Код:
Exact Audio Copy V0.99 prebeta 5 from 4. May 2009
Отчёт EAC об извлечении, выполненном 24. января 2011, 16:48
The-Pulsar / Awakening
Дисковод: PIONEER DVD-RW DVRTD10RS   Adapter: 1  ID: 0
Режим чтения                 : Достоверность
Использование точного потока : Да
Отключение кэша аудио        : Да
Использование указателей C2  : Нет
Коррекция смещения при чтении                     : 6
Способность читать области Lead-in и Lead-out     : Нет
Заполнение пропущенных сэмплов тишиной            : Да
Удаление блоков с тишиной в начале и конце        : Нет
При вычислениях CRC использовались нулевые сэмплы : Да
Интерфейс                                         : Встроенный Win32-интерфейс для Win NT/2000
Выходной формат : Внутренние WAV-операции
Формат сэмплов  : 44.100 Гц; 16 бит; стерео
TOC извлечённого CD
     Трек |   Старт  | Длительность | Начальный сектор | Конечный сектор
    ---------------------------------------------------------------------
       1  |  0:00.00 |    2:07.65   |           0      |       9589
       2  |  2:07.65 |    6:32.51   |        9590      |      39040
       3  |  8:40.41 |    5:48.40   |       39041      |      65180
       4  | 14:29.06 |    6:27.54   |       65181      |      94259
       5  | 20:56.60 |    5:05.57   |       94260      |     117191
       6  | 26:02.42 |    4:24.20   |      117192      |     137011
       7  | 30:26.62 |    5:49.74   |      137012      |     163260
       8  | 36:16.61 |    8:08.23   |      163261      |     199883
       9  | 44:25.09 |    8:54.58   |      199884      |     239991
      10  | 53:19.67 |    6:16.69   |      239992      |     268260
      11  | 59:36.61 |    3:22.52   |      268261      |     283462
Характеристики диапазона извлечения и сообщения об ошибках
Выбранный диапазон
     Имя файла C:\Раздачи DEHUMANOID\The-Pulsar - Awakening\The-Pulsar - Awakening.wav
     Пиковый уровень 97.7 %
     Качество диапазона 99.9 %
     CRC теста 19A6F32B
     CRC копии 19A6F32B
     Копирование... OK
Ошибок не произошло
AccurateRip: сводка
Трек  1  нет в базе данных
Трек  2  нет в базе данных
Трек  3  нет в базе данных
Трек  4  нет в базе данных
Трек  5  нет в базе данных
Трек  6  нет в базе данных
Трек  7  нет в базе данных
Трек  8  нет в базе данных
Трек  9  нет в базе данных
Трек 10  нет в базе данных
Трек 11  нет в базе данных
Ни одного трека нет в базе AccurateRip
Конец отчёта
Код:
Started at: среда, 26. 01. 2011. - 21:20.40
1 file found
1 -===- D:\Раздачи DEHUMANOID\The-Pulsar - Awakening\The-Pulsar - Awakening.flac
  Extracted successfully
  Conclusion: this track is CDDA with probability 100%
  Tempfile successfully deleted.
Finished at: среда, 26. 01. 2011. - 21:27.33 (operation time: 0:06.52)
Правила, инструкции, FAQ!!!
Торрент  Добавлен [26 июн 2020, 19:46] Скачать торрент Магнет ссылка
Скачать торрент
[ Размер 20.31 КБ / Просмотров 3 ]

Статус
Проверен 
 
Размер  497.04 МБ
Приватный: Нет (DHT включён)
.torrent скачан  0
 


     Отправить личное сообщение
   
Страница 1 из 1
Показать сообщения за:  Поле сортировки  
Начать новую тему Ответить на тему


Сейчас этот форум просматривают: нет зарегистрированных пользователей и гости: 0


Вы не можете начинать темы
Вы не можете отвечать на сообщения
Вы не можете редактировать свои сообщения
Вы не можете удалять свои сообщения
Вы не можете добавлять вложения

Перейти:  
cron