Начать новую тему Ответить на тему
Статистика раздачи
Размер: 370.1 МБ | Добавлен: 26 июн 2020, 20:09 | Скачали: 0
Сидеров: 0  [0 байт/сек]    Личеров: 0  [0 байт/сек]
Пред. тема | След. тема 

Автор
Сообщение

СообщениеДобавлено: 26 июн 2020, 20:09 

Ответить с цитатой 

THE KLINIK - EAT YOUR HEART OUT
Жанр: EBM
Страна-производитель диска: Germany
Год издания: 2013
Издатель (лейбл): OUT OF LINE
Номер по каталогу: OUT 597
Аудиокодек: FLAC (*.flac)
Тип рипа: image+.cue
Битрейт аудио: lossless
Продолжительность: 40'
Источник (релизер): Собственный CD
Наличие сканов в содержимом раздачи: да
Треклист:
1. Nothing You Can Do
2. In Your Room
3. Mindswitch
4. Stay
5. Bite Now Bite
6. Therapy
7. We Are One
8. Those
9. Closing Time
Код:
Exact Audio Copy V1.0 beta 3 from 29. August 2011
Отчёт EAC об извлечении, выполненном 24. августа 2013, 11:13
The Klinik / Eat Your Heart Out
Дисковод: HL-DT-STDVDRAM GT10N   Adapter: 2  ID: 0
Режим чтения                 : Достоверность
Использование точного потока : Да
Отключение кэша аудио        : Да
Использование указателей C2  : Нет
Коррекция смещения при чтении                     : 102
Способность читать области Lead-in и Lead-out     : Нет
Заполнение пропущенных сэмплов тишиной            : Да
Удаление блоков с тишиной в начале и конце        : Нет
При вычислениях CRC использовались нулевые сэмплы : Да
Интерфейс                                         : Встроенный Win32-интерфейс для Win NT/2000
Выходной формат          : Пользовательский кодировщик
Выбранный битрейт        : 1024 kBit/s
Качество                 : Высокий
Добавление ID3-тега      : Нет
Утилита сжатия           : C:\Program Files\Exact Audio Copy\Flac\flac.exe
Дополнительные параметры : -V -8 %source%
TOC извлечённого CD
     Трек |   Старт  | Длительность | Начальный сектор | Конечный сектор
    ---------------------------------------------------------------------
       1  |  0:00.00 |    5:00.62   |           0      |      22561
       2  |  5:00.62 |    4:14.04   |       22562      |      41615
       3  |  9:14.66 |    4:12.26   |       41616      |      60541
       4  | 13:27.17 |    4:06.69   |       60542      |      79060
       5  | 17:34.11 |    4:15.33   |       79061      |      98218
       6  | 21:49.44 |    2:34.24   |       98219      |     109792
       7  | 24:23.68 |    5:02.34   |      109793      |     132476
       8  | 29:26.27 |    6:15.08   |      132477      |     160609
       9  | 35:41.35 |    3:59.58   |      160610      |     178592
Характеристики диапазона извлечения и сообщения об ошибках
Выбранный диапазон
     Имя файла C:\Program Files\Exact Audio Copy\Flac\The Klinik - Eat Your Heart Out.wav
     Пиковый уровень 96.7 %
     Скорость извлечения 1.4 X
     Качество диапазона 99.9 %
     CRC теста E5A7BBB1
     CRC копии E5A7BBB1
     Копирование... OK
Ошибок не произошло
AccurateRip: сводка
Трек  1  : извлечено точно (доверие 4)  [CA826986]  (AR v2)
Трек  2  : извлечено точно (доверие 4)  [66B51B15]  (AR v2)
Трек  3  : извлечено точно (доверие 4)  [FB44AB32]  (AR v2)
Трек  4  : извлечено точно (доверие 4)  [460001D8]  (AR v2)
Трек  5  : извлечено точно (доверие 4)  [E641CA50]  (AR v2)
Трек  6  : извлечено точно (доверие 4)  [610568A2]  (AR v2)
Трек  7  : извлечено точно (доверие 4)  [AF6C85AD]  (AR v2)
Трек  8  : извлечено точно (доверие 4)  [C255D852]  (AR v2)
Трек  9  : извлечено точно (доверие 3)  [14EF6C77]  (AR v2)
Все треки извлечены точно
Конец отчёта
==== Контрольная сумма отчёта FC0279340001D06B16969EEF1623602B2770426C3EF25423901AB1E40695A92E ====
Правила, инструкции, FAQ!!!
Торрент  Добавлен [26 июн 2020, 20:09] Скачать торрент Магнет ссылка
Скачать торрент
[ Размер 15.58 КБ / Просмотров 12 ]

Статус
Проверен 
 
Размер  370.1 МБ
Приватный: Нет (DHT включён)
.torrent скачан  0
 


     Отправить личное сообщение
   
Страница 1 из 1
Показать сообщения за:  Поле сортировки  
Начать новую тему Ответить на тему


Сейчас этот форум просматривают: нет зарегистрированных пользователей и гости: 0


Вы не можете начинать темы
Вы не можете отвечать на сообщения
Вы не можете редактировать свои сообщения
Вы не можете удалять свои сообщения
Вы не можете добавлять вложения

Перейти:  
cron